Торрент файл
скачать торрент магнет ссылка Добавлен: 10 дек 2011, 23:02
Размер: 1.45 ГБ
Сидеров: 6
Личеров: 4
Статус: (PriZraK)
Автор

СообщениеДобавлено: 10 дек 2011, 23:02 

Не в сети
Администратор
Дата регистрации:
08 апр 2010, 18:00
Спасибо: 1075 / 220
Сообщения: 17131

Информация о фильме
Название: Старая добрая оргия
Оригинальное название: A Good Old Fashioned Orgy
Год выхода: 2011
Жанр: комедия
Режиссер: Алекс Грегори, Питер Хайк
В ролях: Джейсон Судейкис, Лесли Бибб, Лэйк Белл, Мишелль Борт, Ник Кролл, Тайлер Лэбин, Анджела Сарафян, Линдсэй Слоун, Мартин Старр, Люси Панч

О фильме: У тридцатилетнего Эрика неприятность: отец решил продать семейный загородный дом в Хэмптоне! Тот самый дом, в котором вот уже много лет подряд Эрик проводит грандиозные тематические вечеринки. Очевидно, теперь Эрику придется наконец-то повзрослеть и «взяться за ум». Но перед тем как дом уйдет с молотка, Эрик и группа друзей решают устроить заключительную, самую сумасшедшую прощальную вечеринку — Старую добрую оргию…


Выпущено: США, Aura Film Partnership
Продолжительность: 01:30:53
Озвучивание: Дублированное [лицензия]

Файл
Формат: mkv
Качество: DVDRip-AVC
Видео: 720x384 at 25 fps, x264@L4.1, 2pass, ~1907 kbps avg
Аудио: 48 kHz, AC3, 3/2 (L,C,R,l,r) + LFE ch, ~384.00 kbps avg
Формат : Matroska
Версия формата : Version 2
Размер файла : 1,45 Гбайт
Продолжительность : 1 ч. 30 м.
Общий поток : 2291 Кбит/сек
Дата кодирования : UTC 2011-12-10 11:11:22
Программа кодирования : mkvmerge v4.9.1 ('Ich will') сборка от Jul 11 2011 23:53:15
Библиотека кодирования : libebml v1.2.1 + libmatroska v1.1.1
Видео
Идентификатор : 1
Формат : AVC
Формат/Информация : Advanced Video Codec
Профиль формата : High@L4.1
Параметр CABAC формата : Да
Параметр ReFrames формата : 11 кадров
Идентификатор кодека : V_MPEG4/ISO/AVC
Продолжительность : 1 ч. 30 м.
Битрейт : 1907 Кбит/сек
Ширина : 720 пикселей
Высота : 384 пикселя
Соотношение сторон : 1,875
Частота кадров : 25,000 кадров/сек
Цветовое пространство : YUV
Субдискретизация насыщенности : 4:2:0
Битовая глубина : 8 бит
Тип развёртки : Прогрессивная
Бит/(Пиксели*Кадры) : 0.276
Размер потока : 1,18 Гбайт (81%)
Библиотека кодирования : x264 core 116 r2074 2641b9e
Настройки программы : cabac=1 / ref=11 / deblock=1:-3:-3 / analyse=0x3:0x113 / me=umh / subme=10 / psy=1 / psy_rd=1.10:0.10 / mixed_ref=1 / me_range=32 / chroma_me=1 / trellis=2 / 8x8dct=1 / cqm=0 / deadzone=21,11 / fast_pskip=0 / chroma_qp_offset=-3 / threads=6 / sliced_threads=0 / nr=0 / decimate=1 / interlaced=0 / bluray_compat=0 / constrained_intra=0 / bframes=10 / b_pyramid=2 / b_adapt=2 / b_bias=0 / direct=1 / weightb=1 / open_gop=0 / weightp=2 / keyint=250 / keyint_min=25 / scenecut=40 / intra_refresh=0 / rc=2pass / mbtree=0 / bitrate=1907 / ratetol=1.0 / qcomp=0.60 / qpmin=0 / qpmax=69 / qpstep=4 / cplxblur=20.0 / qblur=0.5 / ip_ratio=1.40 / pb_ratio=1.30 / aq=1:1.00
Аудио
Идентификатор : 2
Формат : AC-3
Формат/Информация : Audio Coding 3
Расширение режима : CM (complete main)
Идентификатор кодека : A_AC3
Продолжительность : 1 ч. 30 м.
Вид битрейта : Постоянный
Битрейт : 384 Кбит/сек
Каналы : 6 каналов
Расположение каналов : Front: L C R, Side: L R, LFE
Частота : 48,0 КГц
Битовая глубина : 16 бит
Метод сжатия : С потерями
Размер потока : 250 Мбайт (17%)
Язык : Russian






реклама партнёра


Вернуться к началу
 Профиль Отправить личное сообщение  
 
   Похожие торренты   Автор   Торрент   Размер 
В этой теме нет новых непрочитанных сообщений. Добрая ведьма / Good Witch / 1 сезон: 1-10 серии из 10 [фэнтези, драма, комедия, 2015] WEB-DL 720p, Avo

salma3

15 | 8

12.78 ГБ

В этой теме нет новых непрочитанных сообщений. Добрая ведьма / Good Witch / 1 сезон: 1-10 серии из 10 [фэнтези, драма, комедия, 2015] WEB-DLRip, Avo

salma3

34 | 18

7.32 ГБ

В этой теме нет новых непрочитанных сообщений. Добрая ведьма / The Good Witch [фэнтези, мелодрама, семейный, 2008] DVDRip, Mvo+Dvo

salma3

19 | 3

2.05 ГБ

В этой теме нет новых непрочитанных сообщений. Русская Свинг Оргия [2011 г., Amateur, CamRip]

Dievas

12 | 5

80.89 МБ

В этой теме нет новых непрочитанных сообщений. Оргия крови / Orgy of Blood [Ужасы, 2009] DVDRip, Mvo

salma3

0 | 3

1.37 ГБ

В этой теме нет новых непрочитанных сообщений. Оргия мертвецов / Orgy of the Dead [ужасы, фэнтези, эротика, 1965] DVDRip, Avo

salma3

14 | 11

1.44 ГБ

В этой теме нет новых непрочитанных сообщений. Strip Poker Orgy / Оргия на Покере (Mike Quasar, Third Degree Films) [2015 г., Big Tits, Orgy, Big Butt, Hardcore, All Sex, DVDRip, 400p]

friizze

13 | 6

1.13 ГБ


Начать новую тему Ответить на тему  [ 1 сообщение ] 




Для Мосгорсуда, Роскомнадзора и рекламодателей:: mosgorsud-torrent[собачка]yandex.ru