Торрент файл
скачать торрент магнет ссылка Добавлен: 08 дек 2011, 15:01
Размер: 1.45 ГБ
Сидеров: 13
Личеров: 3
Статус: (drink)
Автор

СообщениеДобавлено: 08 дек 2011, 15:01 

Не в сети
Супермодератор
Аватара пользователя
Дата регистрации:
11 апр 2010, 18:10
Спасибо: 5801 / 7
Сообщения: 56779

Информация о фильме
Название: Корабельные новости
Оригинальное название: The Shipping News
Год выхода: 2001
Жанр: драма, мелодрама
Режиссер: Лассе Халлстрем / Lasse Hallstrom
В ролях: Кевин Спейси /Kevin Spacey/, Джулианна Мур /Julianne Moore/, Джуди Денч /Judi Dench/, Кейт Бланшетт /Cate Blanchett/, Пит Постлтуэйт /Pete Postlethwaite/, Скотт Гленн /Scott Glenn/, Риз Айфэнс /Rhys Ifans/, Гордон Пинсент /Gordon Pinsent/, Джейсон Бер /Jason Behr/, Ларри Пайн /Larry Pine/

О фильме:
Постоянно получающий от жизни оплеухи Койл однажды влюбился. А в итоге пострадал в очередной раз: красотка Петел устроила в его жизни долгосрочный бедлам.

Койл явно сбился с пути. И он покидает Нью-Йорк, чтобы начать все с нуля. Но, к своему удивлению, оказывается на пороге тайн загадочного прошлого. Все действительно только начинается.


Страна: США
Студия: Miramax Films
Продолжительность: 01:51:34
Перевод: Профессиональный (полное дублирование)

Файл
Кодек: XviD / AC3
Качество: HDRip
Видео: XviD, 720x304 (2.35:1), 24.000 fps, 1 407 Kbps (0.268 bit/pixel)
Звук: AC-3, 48.0 KHz, 6 ch, 448 Kbps, CBR

General
Complete name: E:The.Shipping.News_1400_[Rutor.org].avi
Format: AVI
Format/Info: Audio Video Interleave
File size: 1.45 GiB
Duration: 1h 51mn
Overall bit rate: 1 865 Kbps
Writing application: VirtualDubMod 1.5.10.2 (build 2540/release)
Writing library: VirtualDubMod build 2540/release

Video
ID: 0
Format: MPEG-4 Visual
Format profile: Advanced Simple@L5
Format settings, BVOP: 1
Format settings, QPel: No
Format settings, GMC: No warppoints
Format settings, Matrix: Custom
Codec ID: XVID
Codec ID/Hint: XviD
Duration: 1h 51mn
Bit rate: 1 407 Kbps
Width: 720 pixels
Height: 304 pixels
Display aspect ratio: 2.35:1
Frame rate: 24.000 fps
Color space: YUV
Chroma subsampling: 4:2:0
Bit depth: 8 bits
Scan type: Progressive
Compression mode: Lossy
Bits/(Pixel*Frame): 0.268
Stream size: 1.10 GiB (75%)
Writing library: XviD 1.2.1 (UTC 2008-12-04)

Audio
ID: 1
Format: AC-3
Format/Info: Audio Coding 3
Mode extension: CM (complete main)
Codec ID: 2000
Duration: 1h 51mn
Bit rate mode: Constant
Bit rate: 448 Kbps
Channel(s): 6 channels
Channel positions: Front: L C R, Side: L R, LFE
Sampling rate: 48.0 KHz
Bit depth: 16 bits
Compression mode: Lossy
Stream size: 358 MiB (24%)
Alignment: Split accross interleaves
Interleave, duration: 42 ms (1.00 video frame)
Interleave, preload duration: 500 ms




реклама партнёра


Вернуться к началу
 Профиль Отправить личное сообщение  
 
   Похожие торренты   Автор   Торрент   Размер 
В этой теме нет новых непрочитанных сообщений. Мушкетер / The Musketeer [боевик, драма, мелодрама, приключения, 2001] HDRip, Dub

salma3

76 | 10

1.47 ГБ

В этой теме нет новых непрочитанных сообщений. TransOcean - The Shipping Company [Simulator, Strategy, 3D, 2014] [RePack]

Nickolas3435

524 | 28

4.21 ГБ

В этой теме нет новых непрочитанных сообщений. Тайны Смолвиля / Smallville [S01-10] [фантастика, драма, мелодрама, приключения, 2001-2011] WEB-DLRip, DVDRip, HDRip, Mvo [СТС]

salma3

83 | 206

79.92 ГБ

В этой теме нет новых непрочитанных сообщений. Sly Boots - Bad News Walkin' [2014, Glam Hard Rock, MP3]

PriZraK

16 | 5

105.26 МБ

В этой теме нет новых непрочитанных сообщений. Dilmun Gates - News Of The New World [2012, Melodic Death Metal, MP3]

PriZraK

0 | 1

104.45 МБ

В этой теме нет новых непрочитанных сообщений. В спальне / In the Bedroom [драма, криминал, 2001] HDRip, Mvo

salma3

4 | 3

1.45 ГБ

В этой теме нет новых непрочитанных сообщений. Американская рапсодия / An American Rhapsody [Драма, 2001] HDRip-AVC, Mvo

salma3

0 | 0

2.18 ГБ


Начать новую тему Ответить на тему  [ 1 сообщение ] 




Для Мосгорсуда, Роскомнадзора и рекламодателей:: mosgorsud-torrent[собачка]yandex.ru