Оценка торрента
5 0%  0%  [ 0 ]
4 0%  0%  [ 0 ]
3 0%  0%  [ 0 ]
2 0%  0%  [ 0 ]
1 0%  0%  [ 0 ]
5 0%  0%  [ 0 ]
4 0%  0%  [ 0 ]
3 0%  0%  [ 0 ]
2 0%  0%  [ 0 ]
1 0%  0%  [ 0 ]
Всего голосов : 0
Торрент файл
скачать торрент магнет ссылка Добавлен: 30 сен 2011, 10:18
Размер: 748.65 МБ
Сидеров: 3
Личеров: 3
Статус: (drink)
Автор

СообщениеДобавлено: 30 сен 2011, 10:18 

Не в сети
Зам. Админа
Аватара пользователя
Дата регистрации:
02 дек 2010, 12:39
Спасибо: 12623 / 214
Сообщения: 28012


Год выхода: 2010
Жанр: драма, мелодрама, комедия
Режиссер: Кит Берден / Keith Bearden
В ролях: Ким Кэтролл, Дастин Ингрэм, Брайан Деннехи, Кит Дэвид, Джи Янг Хань, Дэниэл Ельский, Джэми Тисдэйл, Jay Malack, Kojo Asiedu, Николь Барли

О фильме:
Бывшая порно-звезда, которая, будучи уже в зрелом возрасте, стала зарабатывать на хлеб стриптизершей, лишь бы свести концы с концами. Но печальный сюжет фильма скрасил молодой 17-летний поклонник стриптизерши. Он через всю страну ехал к ней на встречу, чтобы познакомиться и увидеться живьем.



Страна: США
Продолжительность: 01:37:18
Перевод: Профессиональный (многоголосый закадровый) | Лицензия

Кодек: XviD / MP3
Качество: HDRip [источник: BDRip 720p: Meet.Monica.Velour.2010.720p.BluRay.DD5.1.x264-CRiSC]
Видео: XviD, 656x368 (16:9), 23,976 fps, 938 kbps, 0.162 bit/pixel
Звук: MP3, 48 kHz, 2ch, 128.00 kbps Constant

Sample

Общее
Полное имя : Ja.i.Monika.Velur.2010.HDRip.745.avi
Формат : AVI
Формат/Информация : Audio Video Interleave
Размер файла : 749 Мбайт
Продолжительность : 1 ч. 37 м.
Общий поток : 1076 Кбит/сек
Программа кодирования : VirtualDubModRus 1.5.10.2 (build 2542/release)
Библиотека кодирования : VirtualDubMod build 2542/release

Видео
Идентификатор : 0
Формат : MPEG-4 Visual
Профиль формата : Advanced Simple@L5
Параметр BVOP формата : 1
Параметр QPel формата : Нет
Параметр GMC формата : Без точки перехода
Параметр матрицы формата : Выборочная
Идентификатор кодека : XVID
Идентификатор кодека/Подсказка : XviD
Продолжительность : 1 ч. 37 м.
Битрейт : 938 Кбит/сек
Ширина : 656 пикселей
Высота : 368 пикселей
Соотношение сторон : 16:9
Частота кадров : 23,976 кадра/сек
Цветовое пространство : YUV
Субдискретизация насыщенности : 4:2:0
Битовая глубина : 8 бит
Тип развёртки : Прогрессивная
Метод сжатия : С потерями
Бит/(Пиксели*Кадры) : 0.162
Размер потока : 653 Мбайт (87%)
Библиотека кодирования : XviD 1.2.1 (UTC 2008-12-04)

Аудио
Идентификатор : 1
Формат : MPEG Audio
Версия формата : Version 1
Профиль формата : Layer 3
Режим : Joint stereo
Расширение режима : MS Stereo
Идентификатор кодека : 55
Идентификатор кодека/Подсказка : MP3
Продолжительность : 1 ч. 37 м.
Вид битрейта : Постоянный
Битрейт : 128 Кбит/сек
Каналы : 2 канала
Частота : 48,0 КГц
Метод сжатия : С потерями
Размер потока : 89,0 Мбайт (12%)
Выравнивание : Соединение по промежуткам
Продолжительность промежутка : 42 мс. (1,00 видеокадр)
Время предзагрузки промежутка : 504 мс.
Библиотека кодирования : LAME3.99 (alpha)






реклама партнёра


Вернуться к началу
 Профиль  
 
   Похожие торренты   Автор   Торрент   Размер 
В этой теме нет новых непрочитанных сообщений. Вальс для Моники / Monica Z (Пер Флю) [Драма, биография, музыка, 2013] HDRip, Mvo

Dracon

0 | 4

1.46 ГБ

В этой теме нет новых непрочитанных сообщений. [FirstTimeAuditions.com / RealityKings.com] Monica Asis - Sexy Mexican Monica (16.11.2017) [Amateur, Blowjob, Sex, Cum Shot, Masturbation, Anal Play, Gagging, Ass Worship, Facial, 1 on 1, Indoors]

salma3

12 | 4

235.98 МБ

В этой теме нет новых непрочитанных сообщений. [DontBreakMe.com / Mofos.com] Monica Asis - Monica the Miniature Maid (19.09.2017) [Big Dick Worship, Work Fantasies, Sex, Handjob, Deep Throat, Gagging, Face Fuck, Big Tits]

salma3

20 | 6

331.72 МБ

В этой теме нет новых непрочитанных сообщений. [FirstTimeAuditions.com / RealityKings.com] Monica Asis (Sexy Mexican Monica) [2017 г., Amateur, Blowjob, Sex, Cum Shot, Masturbation, Anal Play, Gagging, Ass Worship, Facial, 1 on 1, Indoors, 1080p]

salma3

8 | 3

2.99 ГБ

В этой теме нет новых непрочитанных сообщений. [DontBreakMe.com / Mofos.com] Monica Asis (Monica the Miniature Maid) [2017 г., Big Dick Worship, Work Fantasies, Sex, Handjob, Deep Throat, Gagging, Face Fuck, Big Tits, 1080p]

salma3

18 | 6

3.46 ГБ

В этой теме нет новых непрочитанных сообщений. [DontBreakMe.com / Mofos.com] Monica Asis (Monica the Miniature Maid) [2017 г., Big Dick Worship, Work Fantasies, Sex, Handjob, Deep Throat, Gagging, Face Fuck, Big Tits, 720p]

salma3

18 | 6

2.32 ГБ

В этой теме нет новых непрочитанных сообщений. Знакомство с родителями / Meet the Parents [мелодрама, комедия, 2000] Blu-ray EUR 1080p, Dub+Avo+Sub

salma3

32 | 38

37.77 ГБ


Начать новую тему Ответить на тему  [ 1 сообщение ] 




Для Мосгорсуда, Роскомнадзора и рекламодателей:: mosgorsud-torrent[собачка]yandex.ru