Оценка торрента
5 0%  0%  [ 0 ]
4 0%  0%  [ 0 ]
3 0%  0%  [ 0 ]
2 0%  0%  [ 0 ]
1 0%  0%  [ 0 ]
5 0%  0%  [ 0 ]
4 0%  0%  [ 0 ]
3 0%  0%  [ 0 ]
2 0%  0%  [ 0 ]
1 0%  0%  [ 0 ]
Всего голосов : 0
Торрент файл
скачать торрент магнет ссылка Добавлен: 13 сен 2011, 10:17
Размер: 1.37 ГБ
Сидеров: 2
Личеров: 2
Автор

СообщениеДобавлено: 13 сен 2011, 10:17 

Не в сети
Зам. Админа
Аватара пользователя
Дата регистрации:
02 дек 2010, 12:39
Спасибо: 12458 / 214
Сообщения: 27968

Год выхода: 2011
Жанр:боевик, драма, криминал
Режиссер: Майк Гюнтер
В ролях: Фифти Сент, Брюс Уиллис, Райан Филипп, Дженна Деван, Джеймс Римар, Рэнди Кутюр, Уилл Юн Ли, Сьюзи Абромейт, Шон Тоуб, Джей Карнс

О фильме:
Лучшие друзья Сони, Винсент и Дейв вместе выросли на бандитских улицах и зарабатывают на жизнь разбоем. Устав от такой жизни, они решают покончить с преступлениями, когда завершат последнее криминальное дело. Однако один их них решил прекратить преступный путь двоих других в полном смысле слова. После удачного, но кровавого похищения алмазов Винсент стреляет в своих товарищей и бросает их умирать. Дейв погибает на месте, а Сони чудом остается в живых. Теперь у него одна цель — отомстить предателю.




Выпущено: США / Cheetah Vision, Emmett/Furla Films, Gunny Entertainment
Продолжительность: 01:24:54
Озвучивание: Любительский (двухголосый) перевод

Формат: AVI (XviD)
Качество: HDRip
Видео: 1848 kb/s, 720x304
Аудио: AC3, 448 kb/s (6 ch)
Размер: 1.37 Gb
Скачать: Сэмпл
Релиз группа:

General
Complete name: H:Podstava.2011.L2.HDRip.avi
Format: AVI
Format/Info: Audio Video Interleave
File size: 1.37 GiB
Duration: 1h 24mn
Overall bit rate: 2 306 Kbps
Writing application: VirtualDubMod 1.5.10.3 | http://www.virtualdub-fr.org || (build 2550/release)
Writing library: VirtualDubMod build 2550/release

Video
ID: 0
Format: MPEG-4 Visual
Format profile: Advanced Simple@L5
Format settings, BVOP: 2
Format settings, QPel: No
Format settings, GMC: No warppoints
Format settings, Matrix: Custom
Codec ID: XVID
Codec ID/Hint: XviD
Duration: 1h 24mn
Bit rate: 1 849 Kbps
Width: 720 pixels
Height: 304 pixels
Display aspect ratio: 2.35:1
Frame rate: 23.976 fps
Color space: YUV
Chroma subsampling: 4:2:0
Bit depth: 8 bits
Scan type: Progressive
Compression mode: Lossy
Bits/(Pixel*Frame): 0.352
Stream size: 1.10 GiB (80%)
Writing library: XviD 58

Audio
ID: 1
Format: AC-3
Format/Info: Audio Coding 3
Mode extension: CM (complete main)
Codec ID: 2000
Duration: 1h 24mn
Bit rate mode: Constant
Bit rate: 448 Kbps
Channel(s): 6 channels
Channel positions: Front: L C R, Side: L R, LFE
Sampling rate: 48.0 KHz
Bit depth: 16 bits
Compression mode: Lossy
Stream size: 272 MiB (19%)
Alignment: Split accross interleaves
Interleave, duration: 42 ms (1.00 video frame)
Interleave, preload duration: 500 ms






реклама партнёра


Вернуться к началу
 Профиль  
 
   Похожие торренты   Автор   Торрент   Размер 
В этой теме нет новых непрочитанных сообщений. Подстава / Framed (Фил Карлсон / Phil Karlson) [1975г., боевик, криминал, драма, SATRip] MVO

Alfredovich

6 | 4

1.45 ГБ

В этой теме нет новых непрочитанных сообщений. Подстава / The Death and Life of Bobby Z [Боевик, триллер, драма, криминал, 2007] BDRip 1080p, Mvo

salma3

45 | 14

7.63 ГБ

В этой теме нет новых непрочитанных сообщений. Подстава [Криминал, драма,2012] SATRip

iopuk60

0 | 6

2.17 ГБ

В этой теме нет новых непрочитанных сообщений. Братишка / Bro' [боевик, драма, криминал, 2012] HDRip, Mvo [НТВ+]

salma3

132 | 2

1.37 ГБ

В этой теме нет новых непрочитанных сообщений. Во имя справедливости / Out for Justice [боевик, криминал, драма, 1991] HDRip, Dub

salma3

42 | 8

1.45 ГБ

В этой теме нет новых непрочитанных сообщений. Холодная война 2 / Hon zin 2 [боевик, драма, криминал, 2016] HDRip, Mvo

salma3

992 | 61

1.46 ГБ

В этой теме нет новых непрочитанных сообщений. 48 часов / 48 Hrs. [боевик, триллер, драма, комедия, криминал, 1982] HDRip, Mvo [НТВ+]

salma3

36 | 7

1.45 ГБ


Начать новую тему Ответить на тему  [ 1 сообщение ] 




Для Мосгорсуда, Роскомнадзора и рекламодателей:: mosgorsud-torrent[собачка]yandex.ru