Оценка торрента
5 0%  0%  [ 0 ]
4 0%  0%  [ 0 ]
3 0%  0%  [ 0 ]
2 0%  0%  [ 0 ]
1 0%  0%  [ 0 ]
5 0%  0%  [ 0 ]
4 0%  0%  [ 0 ]
3 0%  0%  [ 0 ]
2 0%  0%  [ 0 ]
1 0%  0%  [ 0 ]
Всего голосов : 0
Торрент файл
скачать торрент магнет ссылка Добавлен: 28 июл 2011, 21:57
Размер: 1.37 ГБ
Сидеров: 14
Личеров: 6
Автор

СообщениеДобавлено: 28 июл 2011, 21:57 

Не в сети
Супермодератор
Аватара пользователя
Дата регистрации:
22 май 2010, 12:40
Спасибо: 2027 / 98
Сообщения: 2963
Откуда: Н.Новгород

Страна: Южная Корея
Жанр:детектив, комедия. исторический
Год выпуска: 2011
Продолжительность: 01:55:53.821

Перевод: Авторский (одноголосый закадровый) @PD
Cубтитры: нет
Режиссер: Ким Сук-юн / Kim Suk-Yoon

В ролях: Ким Мьюн-мин / Myung-min Kim, О Даль-су / Dal-su Oh, Хан Чжи-мин / Ji-min Han, Ли Чже-йонг / Jae-yong Lee

Описание: 1782 год, шел 16-й год правления короля Чонг-дзе. В то время, пока правитель пытается укрепить собственные позиции в борьбе с неуправляемой фракцией консерваторов, придворная знать продолжает плести заговоры и интриги. Средства от налогов, основы экономического состояниястраны, начинают бесследно исчезать и коррупция приобретает невероятные масштабы.
Для того, чтобы найти и наказать виновных, король приказывает приближенным раскрыть готовящийся заговор. Тот, кому было поручено разобраться в делах и восстановить справедливость был назначен на должность Старшего Детектива 5-й степени.
Этот человек и стал первым официальным детективом в истории Чосона.

Сэмпл: http://multi-up.com/529664

Качество видео: DVDRip
Формат видео: AVI

Видео: 720x384 (1.88:1), 23.976 fps, XviD MPEG-4 ~1295 kbps avg, 0.20 bit/pixel
Аудио: 48 kHz, AC3 Dolby Digital, 3/2 (L,C,R,l,r) + LFE ch, ~384.00 kbps avg

Релиз: от

P.S. Большая просьба к тем, кому не нравится голос, стиль переводчика или сами переводы - не сорите в топике.
Смотрите фильмы с переводами тех мастеров, которые вам нравятся. У вас всегда есть право выбора! Удачи всем!

Complete name: Корейский Детектив - Detective K (2011).avi
Format: AVI
Format/Info: Audio Video Interleave
File size: 1.37 GiB
Duration: 1h 55mn
Overall bit rate: 1 689 Kbps
Movie name: Корейский Детектив - Detective K
Director: @PD & KaMo
Writing application: VirtualDubMod 1.5.10.1 (build 2366/release)

Video
ID: 0
Format: MPEG-4 Visual
Format profile: Advanced Simple@L5
Format settings, BVOP: Yes
Format settings, QPel: No
Format settings, GMC: No warppoints
Format settings, Matrix: Default (H.263)
Muxing mode: Packed bitstream
Codec ID: XVID
Codec ID/Hint: XviD
Duration: 1h 55mn
Bit rate: 1 296 Kbps
Width: 720 pixels
Height: 384 pixels
Display aspect ratio: 1.875
Frame rate: 23.976 fps
Color space: YUV
Chroma subsampling: 4:2:0
Bit depth: 8 bits
Scan type: Progressive
Bits/(Pixel*Frame): 0.195
Stream size: 1.05 GiB (77%)
Writing library: XviD 1.1.2 (UTC 2006-11-01)

Audio
ID: 1
Format: AC-3
Format/Info: Audio Coding 3
Mode extension: CM (complete main)
Codec ID: 2000
Duration: 1h 55mn
Bit rate mode: Constant
Bit rate: 384 Kbps
Channel(s): 6 channels
Channel positions: Front: L C R, Side: L R, LFE
Sampling rate: 48.0 KHz
Bit depth: 16 bits
Stream size: 318 MiB (23%)
Alignment: Split accross interleaves
Interleave, duration: 42 ms (1.00 video frame)
Interleave, preload duration: 500 ms














реклама партнёра


Вернуться к началу
 Профиль Отправить личное сообщение  
 
   Похожие торренты   Автор   Торрент   Размер 
В этой теме нет новых непрочитанных сообщений. Черные кошки [01-12 из 12] [Исторический детектив, 2013] DVDRip-AVC [лицензия]

Dracon

195 | 42

8.15 ГБ

В этой теме нет новых непрочитанных сообщений. Мама-детектив [01-12 из 12] (Михаил Вайнберг) [Комедия, детектив, 2013] HDTV 1080i

Dracon

1 | 4

25.19 ГБ

В этой теме нет новых непрочитанных сообщений. Мама-детектив [01-12 из 12] (Михаил Вайнберг) [Комедия, детектив, 2013] HDTVRip

Dracon

46 | 10

8.7 ГБ

В этой теме нет новых непрочитанных сообщений. Детектив Бобби / Bobby Jasoos [Триллер, драма, комедия, детектив, 2014] BDRip 720p, Dvo+Sub

salma3

122 | 42

1.4 ГБ

В этой теме нет новых непрочитанных сообщений. Детектив Нэш Бриджес / Nash Bridges [s01x01-08] [Боевик, детектив , 1996] DVDRip, Dvo

salma3

18 | 6

4.05 ГБ

В этой теме нет новых непрочитанных сообщений. Бабуля-детектив / Detective Naani [Детектив, семейный, 2009] DVDRip, Mvo [Red Media]

salma3

1 | 3

1.46 ГБ

В этой теме нет новых непрочитанных сообщений. Леди-детектив мисс Фрайни Фишер / Miss Fisher's Murder Mysteries [S01-02] [драма, криминал, детектив, 2012-2013] DVDRip, HDRip, Mvo

salma3

151 | 102

15.92 ГБ


Начать новую тему Ответить на тему  [ 1 сообщение ] 




Для Мосгорсуда, Роскомнадзора и рекламодателей:: mosgorsud-torrent[собачка]yandex.ru