Оценка торрента
5 0%  0%  [ 0 ]
4 0%  0%  [ 0 ]
3 0%  0%  [ 0 ]
2 0%  0%  [ 0 ]
1 0%  0%  [ 0 ]
Всего голосов : 0
Торрент файл
скачать торрент магнет ссылка Добавлен: 28 май 2011, 18:28
Размер: 2.18 ГБ
Сидеров: 0
Личеров: 2
Статус: (lllod)
Автор

СообщениеДобавлено: 28 май 2011, 18:28 

Не в сети
Аватара пользователя
Дата регистрации:
14 мар 2011, 17:24
Возраст: 32
Спасибо: 14 / 8
Сообщения: 38
Откуда: 9CaraTT.COM
Мыс страха / Cape Fear



Страна: США
Жанр: Триллер, драма, криминал
Год выпуска: 1991
Продолжительность: 02:08:44
Перевод: Профессиональный (двухголосый, закадровый) [Гланц]
Субтитры: нет

Режиссёр: Мартин Скорсезе / Martin Scorsese

В ролях: Роберт Де Ниро, Ник Нолти, Джессика Лэнг, Джульетт Льюис, Грегори Пек, Роберт Митчум, Джо Дон Бейкер, Мартин Болсам, Илляна Даглас, Фред Долтон Томпсон.

Сюжет фильма: Матерый уголовник Макс Кейди выходит из тюрьмы, отсидев длительный срок за изнасилование. Его сердце переполнено злобой и ненавистью. Тогда, четырнадцать лет назад, его адвокатом на суде был Сэм Боуден. У него в руках была важная информация, которая, возможно, могла оправдать Макса.
Но Сэм скрыл ее, и его клиент получил суровый приговор. Макс ничего не забыл, все эти годы он вынашивал план мести. И теперь намерен отыскать Боудена и преподать хороший урок ему, его жене и 15-летней дочери.

Рейтинг Кинопоиск.RU:7.528
Рейтинг IMDB:7.3/10
Рейтинг MPAA:R

Качество: HDRip
Формат файла: AVI
Аудио кодек: AC3
Видео кодек: XviD
Видео: 720x304 (2.37:1), 23.976 fps, XviD build 50 ~1967 kbps avg, 0.38 bit/pixel
Аудио: 48 kHz, AC3 Dolby Digital, 3/2 (L,C,R,l,r) + LFE ch, ~448.00 kbps avg


Полное имя : D:\Фильмы\My rip\Cape_Fear.avi
Формат : AVI
Формат/Информация : Audio Video Interleave
Профиль формата : OpenDML
Размер файла : 2,18 Гбайт
Продолжительность : 2 ч. 8 м.
Общий поток : 2422 Кбит/сек
Программа кодирования : VirtualDubModRus 1.5.10.2 (build 2542/release)
Библиотека кодирования : VirtualDubMod build 2542/release

Видео
Идентификатор : 0
Формат : MPEG-4 Visual
Профиль формата : Advanced Simple@L5
Параметр BVOP формата : 1
Параметр QPel формата : Нет
Параметр GMC формата : Без точки перехода
Параметр матрицы формата : Выборочная
Идентификатор кодека : XVID
Идентификатор кодека/Подсказка : XviD
Продолжительность : 2 ч. 8 м.
Битрейт : 1962 Кбит/сек
Ширина : 720 пикс.
Высота : 304 пикс.
Соотношение сторон : 2,35:1
Частота кадров : 23,976 кадр/сек
Цветовое пространство : YUV
Подвыборка цветности : 4:2:0
Битовая глубина : 8 бит
Тип развёртки : Прогрессивная
Метод сжатия : С потерями
Бит/(Пиксели*Кадры) : 0.374
Размер потока : 1,76 Гбайт (81%)
Библиотека кодирования : XviD 1.2.1 (UTC 2008-12-04)

Аудио
Идентификатор : 1
Формат : AC-3
Формат/Информация : Audio Coding 3
Расширение режима : CM (complete main)
Идентификатор кодека : 2000
Продолжительность : 2 ч. 8 м.
Вид битрейта : Постоянный
Битрейт : 448 Кбит/сек
Канал(ы) : 6 канала(ов)
Расположение каналов : Front: L C R, Side: L R, LFE
Частота : 48,0 КГц
Битовая глубина : 16 бит
Метод сжатия : С потерями
Размер потока : 413 Мбайт (18%)
Выравнивание : Разделение по промежуткам
Продолжительность промежутка : 42 мс. (1,00 видеокадр)
Время предзагрузки промежутка : 500 ms

Rip от:




реклама партнёра


Вернуться к началу
 Профиль Отправить личное сообщение  
 
   Похожие торренты   Автор   Торрент   Размер 
В этой теме нет новых непрочитанных сообщений. После работы / After Hours (Мартин Скорсезе / Martin Scorsese) [1985г., триллер, драма, комедия , WEB-DL 720p] DUB + 2MVO

Alfredovich

17 | 3

3.16 ГБ

В этой теме нет новых непрочитанных сообщений. Голый пистолет 2 1/2: Запах страха / The Naked Gun 2 1/2: The Smell of Fear [комедия, криминал, 1991] BDRemux 1080p, Mvo+Dvo+Avo+Sub

salma3

12 | 46

39.41 ГБ

В этой теме нет новых непрочитанных сообщений. Голый пистолет 2 1/2: Запах страха / The Naked Gun 2 1/2: The Smell of Fear [Боевик, комедия, криминал, 1991] BDRip 720p, Mvo

salma3

6 | 5

6.07 ГБ

В этой теме нет новых непрочитанных сообщений. Фрагмент страха / Fragment of Fear [драма, криминал, детектив, 1970] HDRip, Mvo

salma3

18 | 3

1.45 ГБ

В этой теме нет новых непрочитанных сообщений. Позднее лето / Late Summer (Хенрик Мартин Дальсбаккен / Henrik Martin Dahlsbakken) [2016г., Франция, триллер, драма, детектив, HDRip] VO

Alfredovich

76 | 12

875.06 МБ

В этой теме нет новых непрочитанных сообщений. Отражение страха / A Reflection of Fear [триллер, драма, 1973] DVDRip, Avo

salma3

44 | 3

1.46 ГБ

В этой теме нет новых непрочитанных сообщений. Семь минут / 7 Minutes (Jay Martin) [триллер, драма, криминал, 2014] HDRip, dvo

Dracon

1403 | 90

1.37 ГБ


СообщениеДобавлено: 28 май 2011, 18:41 

Не в сети
Аватара пользователя
Дата регистрации:
14 мар 2011, 17:24
Возраст: 32
Спасибо: 14 / 8
Сообщения: 38
Откуда: 9CaraTT.COM
Отличный психологический триллер, лицам, не достигшим возраста 18 лет, просмотр данной картины не желателен ;)


Вернуться к началу
 Профиль Отправить личное сообщение  
 
Начать новую тему Ответить на тему  [ Сообщений: 2 ] 




Для Мосгорсуда, Роскомнадзора и рекламодателей:: mosgorsud-torrent[собачка]yandex.ru