Оценка торрента
5 0%  0%  [ 0 ]
4 0%  0%  [ 0 ]
3 0%  0%  [ 0 ]
2 0%  0%  [ 0 ]
1 0%  0%  [ 0 ]
5 0%  0%  [ 0 ]
4 0%  0%  [ 0 ]
3 0%  0%  [ 0 ]
2 0%  0%  [ 0 ]
1 0%  0%  [ 0 ]
Всего голосов : 0
Торрент файл
скачать торрент магнет ссылка Добавлен: 26 май 2011, 00:36
Размер: 4.35 ГБ
Сидеров: 62
Личеров: 9
Автор

СообщениеДобавлено: 26 май 2011, 00:36 

Не в сети
Супермодератор
Аватара пользователя
Дата регистрации:
22 май 2010, 11:03
Возраст: 31
Спасибо: 7509 / 13
Сообщения: 49940
Царство небесное (Режиссерская версия) / Kingdom of Heaven (Director's Сut)


Перевод: Профессиональный (полное дублирование)
Cубтитры: Pусские, английские

Формат: BDRip, MKV, H.264, AC3

Страна: США, Испания
Режиссер: Ридли Скотт

Жанр: Боевик, приключения, история
Продолжительность: 03:09:33
Год выпуска: 2005

В ролях: Орландо Блум, Ева Грин, Лиам Нисон, Дэвид Тьюлис, Джереми Айронс, Эрик Эбони, Натали Кокс, Филип Гленистер, Мартин Хэнкок, Бронсон Уэбб

Описание: Юный оружейник Бэлиан вынужден бежать со своей родины. Он присоединяется к отряду крестоносцев, которым руководит его отец. Но, в одной из битв, отец получает тяжелую рану и перед смертью присваивает своему сыну сан рыцаря, и тот клянется в верности королю Иерусалима.

Рейтинг на IMDB: 7.1/10
Рейтинг MPAA: R
Рейтинг на Кинопоиск.RU: 7.497



Видео: 1024x432 (2.35:1), 23.976 fps, MPEG-4 AVC, ~2834 kbps, 0.267 bit/pixel
Аудио:48.0 kHz, AC3, 3/2 (L,C,R,l,r) + LFE ch, ~320.00 kbps avg

Релиз группа:

Общее
UniqueID/String: 218643053886082212243990384347614356380 (0xA47D1ED68AB21F509B2BB7DB2115239C)
Полное имя: I:\Carstvo.Nebesnoe.(Rezhisserskaja versija).2005.х264.BDRip(AVC)-ed_rez.mkv
Формат: Matroska
Размер файла: 4,35 Гбайт
Продолжительность: 3 ч. 9 м.
Общий поток: 3283 Кбит/сек
Дата кодирования: UTC 2011-01-31 18:20:50
Программа кодирования: mkvmerge v4.4.0 ('Die Wiederkehr') built on Oct 31 2010 21:52:48
Библиотека кодирования: libebml v1.0.0 + libmatroska v1.0.0

Видео
Идентификатор: 1
Формат: AVC
Формат/Информация: Advanced Video Codec
Профиль формата: High@L4.1
Параметр CABAC формата: Да
Параметр ReFrames формата: 10 кадры
Режим смешивания: Header stripping
Идентификатор кодека: V_MPEG4/ISO/AVC
Продолжительность: 3 ч. 9 м.
Битрейт: 2834 Кбит/сек
Ширина: 1024 пикс.
Высота: 432 пикс.
Соотношение сторон: 2,35:1
Частота кадров: 23,976 кадр/сек
Цветовое пространство: YUV
Подвыборка цветности: 4:2:0
Битовая глубина: 8 бит
Тип развёртки: Прогрессивная
Бит/(Пиксели*Кадры): 0.267
Размер потока: 3,67 Гбайт (84%)
Библиотека кодирования: x264 core 92 r1510 33d382a
Язык: English

Аудио
Идентификатор: 2
Формат: AC-3
Формат/Информация: Audio Coding 3
Расширение режима: CM (complete main)
Режим смешивания: Header stripping
Идентификатор кодека: A_AC3
Продолжительность: 3 ч. 9 м.
Вид битрейта: Постоянный
Битрейт: 320 Кбит/сек
Канал(ы): 6 канала(ов)
Расположение каналов: Front: L C R, Side: L R, LFE
Частота: 48,0 КГц
Битовая глубина: 16 бит
Метод сжатия: С потерями
Размер потока: 607 Мбайт (14%)
Заголовок: DUB
Язык: Russian

Текст #1
Идентификатор: 3
Формат: UTF-8
Идентификатор кодека: S_TEXT/UTF8
Идентификатор кодека/Информация: UTF-8 Plain Text
Язык: Russian

Текст #2
Идентификатор: 4
Формат: UTF-8
Идентификатор кодека: S_TEXT/UTF8
Идентификатор кодека/Информация: UTF-8 Plain Text
Язык: Russian

Текст #3
Идентификатор: 5
Формат: UTF-8
Идентификатор кодека: S_TEXT/UTF8
Идентификатор кодека/Информация: UTF-8 Plain Text
Язык: English







Включите в своиx торрент-клиентах DHT поддержку!




реклама партнёра


Вернуться к началу
 Профиль Отправить личное сообщение  
 
   Похожие торренты   Автор   Торрент   Размер 
В этой теме нет новых непрочитанных сообщений. Царство небесное / Kingdom of Heaven [боевик, драма, приключения, 2005] BDRip, Dub

salma3

775 | 51

1.46 ГБ

В этой теме нет новых непрочитанных сообщений. Марсианин / The Martian (Ридли Скотт) [Фантастика, приключения, 2015] BDRip-AVC, Dub+Sub [iTunes]

Dracon

1495 | 100

2.84 ГБ

В этой теме нет новых непрочитанных сообщений. Марсианин / The Martian (Ридли Скотт) [2015, фантастика, приключения, BDRip 720p | Лицензия] Dub

Nickolas3435

425 | 22

9.34 ГБ

В этой теме нет новых непрочитанных сообщений. Марсианин / The Martian (Ридли Скотт) [Фантастика, приключения, 2015] BDRip 720p, dub [iTunes]

Dracon

438 | 9

7.53 ГБ

В этой теме нет новых непрочитанных сообщений. Марсианин / The Martian (Ридли Скотт) [Фантастика, приключения, 2015] BDRip 1080p, dub [iTunes]

Dracon

4064 | 550

11.3 ГБ

В этой теме нет новых непрочитанных сообщений. Марсианин / The Martian (Ридли Скотт) [Фантастика, приключения, 2015] BDRip 1080p, Dub+Sub [3D-Video | iTunes]

Dracon

962 | 149

13.51 ГБ

В этой теме нет новых непрочитанных сообщений. Марсианин / The Martian (Ридли Скотт) [Фантастика, приключения, 2015] BDRip 1080p, Dub+Sub [3D-Video | HSBS | iTunes]

Dracon

1260 | 171

10.53 ГБ


Начать новую тему Ответить на тему  [ 1 сообщение ] 




Для Мосгорсуда, Роскомнадзора и рекламодателей:: mosgorsud-torrent[собачка]yandex.ru