Оценка торрента
4 0%  0%  [ 0 ]
2 0%  0%  [ 0 ]
1 0%  0%  [ 0 ]
2 0%  0%  [ 0 ]
1 0%  0%  [ 0 ]
4 0%  0%  [ 0 ]
2 0%  0%  [ 0 ]
1 0%  0%  [ 0 ]
2 0%  0%  [ 0 ]
1 0%  0%  [ 0 ]
Всего голосов : 0
Торрент файл
скачать торрент магнет ссылка Добавлен: 26 май 2011, 00:36
Размер: 2.06 ГБ
Сидеров: 39
Личеров: 7
Автор

СообщениеДобавлено: 26 май 2011, 00:36 

Не в сети
Супермодератор
Аватара пользователя
Дата регистрации:
22 май 2010, 11:03
Возраст: 31
Спасибо: 7509 / 13
Сообщения: 49940
Солт [Расширенная версия] / Salt [Extended]


"Кто она?"

Перевод: Профессиональный (полное дублирование), cубтитры: отсутствуют
Формат: BDRip, MKV, H.264, AC3

Страна: США
Режиссер: Филлип Нойс
Жанр: боевик, триллер

Продолжительность: 01:44:04
Год выпуска: 2010

В ролях: Лив Шрайбер, Анджелина Джоли, Чиветел Эджиофор, Яра Шахиди, Гай Чарльз, Зои Листер Джонс, Виктор Слезак, Даниэль Ольбрыхский, Кэссиди Хинкль, Джеймс Шрэм

Описание: Эвелин Солт — сотрудница ЦРУ. Ей чудом удаётся избежать тюрьмы: собственное агентство выдвигает против неё необоснованные обвинения в том, что она работает на русскую разведку. Теперь Солт необходимо восстановить своё доброе имя.







Видео: 1280x534 (2.35:1), 23,976 fps, 2525 Кbps,AVC(x264) High@L4.1, 0.146 bit/pixel
Аудио: 48 kHz, Dolby AC3, 6 ch, ~384 kbps avg

Доп. информация: Extended версия не была дублирована полностью, поэтому есть вставки с многоголосым переводом на расширенные моменты. В расширенной (альтернативной) версии меняется частично сюжет и совершенно иная концовка.
Релиз группа:

General
Unique ID: 213314713354323008603939847449690234797 (0xA07AEB5DFA7A6B4686A451AC1663DFAD)
Complete name: D:\Films\Salt_[Extended]_[tfile.ru].mkv
Format: Matroska
File size: 2.06 GiB
Duration: 1h 44mn
Overall bit rate: 2 832 Kbps
Encoded date: UTC 2010-11-30 16:37:24
Writing application: mkvmerge v3.0.0 ('Hang up your Hang-Ups') built on Dec 12 2009 15:20:35
Writing library: libebml v0.7.9 + libmatroska v0.8.1

Video
ID: 1
Format: AVC
Format/Info: Advanced Video Codec
Format profile: High@L4.1
Format settings, CABAC: Yes
Format settings, ReFrames: 3 frames
Format settings, GOP: M=4, N=16
Codec ID: V_MPEG4/ISO/AVC
Duration: 1h 44mn
Bit rate mode: Variable
Bit rate: 2 392 Kbps
Nominal bit rate: 2 525 Kbps
Maximum bit rate: 17.5 Mbps
Width: 1 280 pixels
Height: 534 pixels
Display aspect ratio: 2.35:1
Original display aspect ratio: 2.35:1
Frame rate: 23.976 fps
Color space: YUV
Chroma subsampling: 4:2:0
Bit depth: 8 bits
Scan type: Progressive
Bits/(Pixel*Frame): 0.146
Stream size: 1.74 GiB (84%)
Title: Солт [Расширенная версия].[nolimits-team.ru]
Writing library: x264 core 108 r1788 c764e29
Encoding settings: cabac=1 / ref=1 / deblock=1:0:0 / analyse=0x3:0x3 / me=dia / subme=1 / psy=1 / psy_rd=0.00:0.00 / mixed_ref=0 / me_range=16 / chroma_me=1 / trellis=0 / 8x8dct=1 / cqm=0 / deadzone=21,11 / fast_pskip=1 / chroma_qp_offset=0 / threads=6 / sliced_threads=0 / slices=4 / nr=0 / decimate=1 / interlaced=0 / constrained_intra=0 / bframes=3 / b_pyramid=1 / b_adapt=1 / b_bias=0 / direct=1 / weightb=1 / open_gop=0 / weightp=0 / keyint=24 / keyint_min=1 / scenecut=40 / intra_refresh=0 / rc_lookahead=0 / rc=abr / mbtree=0 / bitrate=2525 / ratetol=1.0 / qcomp=0.60 / qpmin=0 / qpmax=51 / qpstep=4 / vbv_maxrate=17500 / vbv_bufsize=14500 / ip_ratio=1.10 / pb_ratio=1.10 / aq=1:1.00 / nal_hrd=vbr
Language: English

Audio
ID: 2
Format: AC-3
Format/Info: Audio Coding 3
Mode extension: CM (complete main)
Codec ID: A_AC3
Duration: 1h 44mn
Bit rate mode: Constant
Bit rate: 384 Kbps
Channel(s): 6 channels
Channel positions: Front: L C R, Side: L R, LFE
Sampling rate: 48.0 KHz
Bit depth: 16 bits
Compression mode: Lossy
Stream size: 286 MiB (14%)
Title: Профессиональный (дублированный)
Language: Russian









реклама партнёра


Вернуться к началу
 Профиль Отправить личное сообщение  
 
   Похожие торренты   Автор   Торрент   Размер 
В этой теме нет новых непрочитанных сообщений. Крепкий орешек: Хороший день, чтобы умереть / A Good Day to Die Hard (Джон Мур / John Moore) [2013, США, боевик, триллер, криминал, HQRip-AVC] [Расширенная версия / Extended Сut] Dub

PriZraK

53 | 1

1.43 ГБ

В этой теме нет новых непрочитанных сообщений. Хоббит: Нежданное путешествие (Расширенная Версия) / The Hobbit: An Unexpected Journey (Extended Cut) (Питер Джексон) [2012, Фэнтези, приключения, экранизация, BDRip-AVC 1080p] [DD5.1] [MVO] [ Дублированный + Subs Rus]

Nikolai.Baranov

13 | 2

8.61 ГБ

В этой теме нет новых непрочитанных сообщений. Отряд самоубийц / Suicide Squad (Фантастика, боевик, триллер, комедия, криминал, приключения, 2016) BDRip от MegaPeer | Расширенная версия | D

marya111

860 | 79

2.18 ГБ

В этой теме нет новых непрочитанных сообщений. Шпион / Spy (Пол Фиг) [Боевик, комедия, 2015] BDRip 1080p, Dub [Расширенная версия | iTunes]

Dracon

80 | 11

10.19 ГБ

В этой теме нет новых непрочитанных сообщений. Шпион / Spy (Пол Фиг) [Боевик, комедия, 2015] BDRip 720p, Dub [Расширенная версия | iTunes]

Dracon

61 | 4

6.91 ГБ

В этой теме нет новых непрочитанных сообщений. Посвященный / The Giver (Филлип Нойс) [2014, фантастика, драма, TS] Dub

Nickolas3435

173 | 6

1.37 ГБ

В этой теме нет новых непрочитанных сообщений. Охотники за привидениями / Ghostbusters (фантастика, фэнтези, боевик, комедия, 2016) BDRip-AVC от HELLYWOOD | Расширенная версия | Лицензия

marya111

165 | 10

1.93 ГБ


Начать новую тему Ответить на тему  [ 1 сообщение ] 




Для Мосгорсуда, Роскомнадзора и рекламодателей:: mosgorsud-torrent[собачка]yandex.ru