Торрент файл
скачать торрент магнет ссылка Добавлен: 25 май 2011, 23:31
Размер: 1.23 ГБ
Сидеров: 12
Личеров: 6
Автор

СообщениеДобавлено: 25 май 2011, 23:31 

Не в сети
Администратор
Дата регистрации:
08 апр 2010, 18:00
Спасибо: 1075 / 220
Сообщения: 17131
Гарри Поттер и Принц-полукровка (смешной НЕ ГОБЛИНОВСКИЙ перевод) Федор Сумкин и Сосиска / Harry Potter and the Half-Blood Prince

Перевод: Авторский (Гоблинa), cубтитры: отсутствуют
Формат: DVDRip, MKV, XviD, MP3
Страна: Наша
Режиссер: Перегрузкин
Жанр: Комедия / Фэнтези
Продолжительность: 2:27:12
Год выпуска: 2009
В ролях: Федор Сумкин, Сеня Ганжубас, Гендальф, Никита Сергеевич, Ющенко, Директор Макдональдса и другие
Описание: Перевод не Гоблиновский, но авторский и смешной. Если модераторы изменять "перевод" на более адекватный, спасибо им.

ПЕРЕВОД НЕ ГОБЛИНОВСКИЙ, а смешной авторский, по типу Гоблиновского властелина колец.

И так, Перегрузкин с гордостью представляет высокохудожетвенный фильм Федор Сумкин и Сосиска.

После своих приключений в Мордовии Федор Сумкин решает поступить в кулинарный техникум и открыть сосисочную. Но вот незадача, преподаватели нетрадиционной ориентации не выдают просто так рецепт майонеза, а директор макдональдса строит козни, боясь будущей конкуренции.

Перевод отлично выдерживает сюжетную линию полностью совпадающую с видеорядом. Отличная история заставит посмеятся не только над приключениями Федора Сумкина, но и над оригинальным фильмом, а саундрек групп Ноль, Лампасы, Ума Турман и известных советских исполнителей приятно удивят и украсят просмотр.

Да, автор, собственно -я )))

Посмотрите, перепишите другу, оставайтесь нараздаче. ))))

Рейтинг на IMDB: 7.4/10
Рейтинг MPAA: PG

Видео: 624х256 (2.40:1), 25 fps, XviD MPEG-4, ~913 Kbps avg, 0.229 bit/pixel
Аудио: 44.1 KHz, MPEG Audio Layer 3, 2 channels, ~256 kbps avg










Сэмпл: http://onemove.ru/7149/


Format: Matroska
File size: 1.23 GiB
Duration: 2h 27mn
Overall bit rate: 1 193 Kbps
Encoded date: UTC 2010-01-25 18:05:58
Writing application: mkvmerge v3.0.0 ('Hang up your Hang-Ups') built on Dec 12 2009 15:20:35
Writing library: libebml v0.7.9 + libmatroska v0.8.1

Video
ID: 1
Format: MPEG-4 Visual
Format profile: AdvancedSimple@L5
Format settings, BVOP: Yes
Format settings, QPel: No
Format settings, GMC: No warppoints
Format settings, Matrix: Default (MPEG)
Codec ID: XVID
Codec ID/Hint: XviD
Duration: 2h 27mn
Bit rate: 913 Kbps
Width: 624 pixels
Height: 256 pixels
Display aspect ratio: 2.40:1
Frame rate: 25.000 fps
Resolution: 24 bits
Colorimetry: 4:2:0
Scan type: Progressive
Bits/(Pixel*Frame): 0.229
Stream size: 962 MiB (77%)
Writing library: XviD 1.3.0.dev55

Audio
ID: 2
Format: MPEG Audio
Format version: Version 1
Format profile: Layer 3
Codec ID: A_MPEG/L3
Codec ID/Hint: MP3
Duration: 2h 27mn
Bit rate mode: Constant
Bit rate: 256 Kbps
Channel(s): 2 channels
Sampling rate: 44.1 KHz
Resolution: 16 bits
Stream size: 270 MiB (21%)




реклама партнёра


Вернуться к началу
 Профиль Отправить личное сообщение  
 
   Похожие торренты   Автор   Торрент   Размер 
В этой теме нет новых непрочитанных сообщений. Доча / Taken [пародия, комедия, юмористический перевод, 2016] HDRip, Avo [Смешной перевод[

marya111

193 | 2

1.6 ГБ

В этой теме нет новых непрочитанных сообщений. Леденец / Hitman [пародия, комедия, юмористический перевод, 2016] HDRip, Dvo [Смешной перевод]

marya111

41 | 5

1.1 ГБ

В этой теме нет новых непрочитанных сообщений. Леди Икс / Frozen (Пародия, комедия, мультфильм, мюзикл, юмористический перевод, 2016) BDRip 720p | Смешной перевод

marya111

145 | 6

3.24 ГБ

В этой теме нет новых непрочитанных сообщений. Хоббит и шоколадная фабрика / The Hobbit: The Desolation of Smaug (пародия, комедия, юмористический перевод, 2016) HDRip | Смешной перевод

marya111

607 | 21

1.78 ГБ

В этой теме нет новых непрочитанных сообщений. Магнолия / Batman Begins, Harsh Times, The Fighter [01x01-05] [Пародия, комедия, юмористический перевод, 2014] HDRip [Смешной перевод]

Dracon

8 | 4

3.29 ГБ

В этой теме нет новых непрочитанных сообщений. Агафья убивает / The Hunger Games (Гэри Росс, Oxid) [2014, Пародия, комедия, юмористический перевод, BDRip | Смешной перевод] mvo

Nickolas3435

44 | 17

1.92 ГБ

В этой теме нет новых непрочитанных сообщений. Ледниковый период 3: Доктор Штоа / Ice Age: Dawn of the Dinosaurs (Карлос Салдана, Agent DieGo) [2015, Пародия, комедия, юмористический перевод, BDRip | Смешной перевод]

Nickolas3435

584 | 13

1.4 ГБ


Начать новую тему Ответить на тему  [ 1 сообщение ] 




Для Мосгорсуда, Роскомнадзора и рекламодателей:: mosgorsud-torrent[собачка]yandex.ru