Торрент файл
скачать торрент магнет ссылка Добавлен: 25 май 2011, 23:30
Размер: 1.71 ГБ
Сидеров: 5
Личеров: 6
Автор

СообщениеДобавлено: 25 май 2011, 23:30 

Не в сети
Администратор
Дата регистрации:
08 апр 2010, 18:00
Спасибо: 1075 / 220
Сообщения: 17131
Начало времен / Year One

Перевод: Авторский (Гоблинa), cубтитры: отсутствуют
Формат: HDRip, AVI, XviD, AC3
Страна: США
Режиссер: Харольд Рэмис
Жанр: Kомедия, приключения
Продолжительность: 1:36:52
Год выпуска: 2009
В ролях: Джек Блэк, Майкл Сера, Оливер Плэтт, Дэвид Кросс, Кристофер Минц-Плассе, Винни Джонс, Хэнк Азария, Джуно Темпл, Оливия Уайлд, Джун Рафаэль
Описание: Комедийная версия истории о сотворении мира. Зет и Ох — два соплеменника. Когда Зет нарушает правило и срывает плод с Древа познания, он изгоняется из племени. Верный Ох уходит с другом, и они находят двух красоток, племя которых порабощено. Любовь девушек можно заслужить храбростью во время освобождения племени. Зет и Ох начинают борьбу, во время которой им встречаются многие библейские герои
Рейтинг на IMDB: 5.1/10 Рейтинг фильма на данный момент
Рейтинг MPAA:PG-13
Рейтинг на:
Видео: 720x384 (4:2:0), 23.98 fps, XviD build 50 ~ 1 689Kbps avg, 0,25 bit/pixel
Аудио 1: Dolby AC3 48000Hz 6ch 384 kBps (Дмитрий "Гоблин" Пучков)
Аудио 2: Dolby AC3 48000Hz 6ch 448 kBps (Оригинал, английский)
Доп. информация: ВНИМАНИЕ!!! Звуковая дорога качества VoiceRipHQ.
Звук - записан в кинотеатре. Качество значительно лучше, чем звук TS.
Дорога очищена от помех и шумов, однако, это всё равно запись с кинотеатра!
Поэтому, релиз исключительно для ценителей переводов Гоблина.Последние 5 минут фильма перевод отсутствует.
Кино откровенно тупое. Сразу предупреждаю. Но вчера опробовали на москвичах. Москвичи сильно смеялись. Думаю, вам тоже будет весело. Оно такого, библейского плана. То есть, там Авраамы, Исааки. Неплохо знать кто такой Каин и Авель. Но, в общем-то, даже если не знаете, тоже будет смешно.

General
Complete name: D:\Моя\Раздача\Nachalo_vremen_[tfile.ru]\Year One.avi
Format: AVI
Format/Info: Audio Video Interleave
Format profile: OpenDML
File size: 1.71 GiB
Duration: 1h 36mn
Overall bit rate: 2 529 Kbps
Writing application: AVI-Mux GUI 1.17.8, Aug 30 200812:36:58

Video
ID: 0
Format: MPEG-4 Visual
Format profile: Advanced Simple@L5
Format settings, BVOP: Yes
Format settings, QPel: No
Format settings, GMC: No warppoints
Format settings, Matrix: Default (H.263)
Muxing mode: Packed bitstream
Codec ID: XVID
Codec ID/Hint: XviD
Duration: 1h 36mn
Bit rate: 1 689 Kbps
Width: 720 pixels
Height: 384 pixels
Display aspect ratio: 1.875
Frame rate: 23.976 fps
Resolution: 8 bits
Colorimetry: 4:2:0
Scan type: Progressive
Bits/(Pixel*Frame): 0.255
Stream size: 1.14 GiB (67%)
Writing library: XviD 1.2.1 (UTC 2008-12-04)

Audio #1
ID: 1
Format: AC-3
Format/Info: Audio Coding 3
Codec ID: 2000
Duration: 1h 36mn
Bit rate mode: Constant
Bit rate: 384 Kbps
Channel(s): 6 channels
Channel positions: Front: L C R, Surround: L R, LFE
Sampling rate: 48.0 KHz
Stream size: 266 MiB (15%)
Alignment: Aligned on interleaves
Interleave, duration: 64 ms (1.53 video frames)
Interleave, preload duration: 192 ms
Title: AVO Goblin 5.1 VRHQ

Audio #2
ID: 2
Format: AC-3
Format/Info: Audio Coding 3
Codec ID: 2000
Duration: 1h 36mn
Bit rate mode: Constant
Bit rate: 448 Kbps
Channel(s): 6 channels
Channel positions: Front: L C R, Surround: L R, LFE
Sampling rate: 48.0 KHz
Stream size: 310 MiB (18%)
Alignment: Aligned on interleaves
Interleave, duration: 64 ms (1.53 video frames)
Interleave, preload duration: 192 ms
Title: Original

Text
ID: 3
Stream size: 2.39 KiB (0%)
Title: RussianGuy27










реклама партнёра


Вернуться к началу
 Профиль Отправить личное сообщение  
 
   Похожие торренты   Автор   Торрент   Размер 
В этой теме нет новых непрочитанных сообщений. Начало времен / Year One [комедия, приключения, 2009] BDRip, Dub

salma3

132 | 4

1.46 ГБ

В этой теме нет новых непрочитанных сообщений. Орудия cмерти: Город костей / The Mоrtal Instruments: City of Bones (Харольд Цварт) [2013, фэнтези, приключения, драма, мелодрама, HDRip] DUB

Nickolas3435

290 | 11

1.52 ГБ

В этой теме нет новых непрочитанных сообщений. Дом конца времён / Дом в конце времен / La casa del fin de los tiempos / The House of the End Times [Мистика, триллер, 2013] BDRip 720p, avo

Dracon

89 | 4

4.5 ГБ

В этой теме нет новых непрочитанных сообщений. Бахубали: Начало / Baahubali: The Beginning [Боевик, приключения, военный, история, 2015] HDRip, Dvo

salma3

1878 | 70

1.46 ГБ

В этой теме нет новых непрочитанных сообщений. Кодекс пирата: приключения Микки Мэтсона / Pirate's Code: The Adventures of Mickey Matson (Харольд Кронк) [Cемейный, приключения, 2014] DVDRip, dvo

Dracon

70 | 2

1.37 ГБ

В этой теме нет новых непрочитанных сообщений. Царь обезьян: Начало легенды / Король обезьян 2 / Xi you ji zhi: Sun Wukong san da Baigu Jing [Фэнтези, боевик, приключения, 2016] HDRip, Dvo

salma3

672 | 43

1.46 ГБ

В этой теме нет новых непрочитанных сообщений. Крепкие тела / Hardbodies [Kомедия, 1984] HDRip, Mvo [СТС]

salma3

0 | 0

1.37 ГБ


Начать новую тему Ответить на тему  [ 1 сообщение ] 




Для Мосгорсуда, Роскомнадзора и рекламодателей:: mosgorsud-torrent[собачка]yandex.ru