Торрент файл
скачать торрент магнет ссылка Добавлен: 25 май 2011, 23:30
Размер: 1.13 ГБ
Сидеров: 9
Личеров: 7
Автор

СообщениеДобавлено: 25 май 2011, 23:30 

Не в сети
Администратор
Дата регистрации:
08 апр 2010, 18:00
Спасибо: 1075 / 220
Сообщения: 17131
Логово козла или Возвращение Саурона / Resident Evil

Перевод: Авторский (студия "Zombi Films"), cубтитры: отсутствуют
Формат: DVDRip, AVI, XviD, MP3
Страна: Германия, Франция, Великобритания
Режиссер: Пол У. С. Андерсон
Жанр: Пародии
Продолжительность: 01:35:15
Год выпуска: 2002
В ролях: Милла Йовович, Мишель Родригес, Эрик Мэбиус, Джеймс Пьюрфой, Мартин Крюз, Колин Сэлмон, Райан МакКласки, Оскар Пирс, Индра Ове, Анна Болт
Описание: После уничтожения Кольца Всевластия дух Саурона свалил в бега на Землю. Там он работал на корпорацию Майкрософт – писал компьютерные вирусы и глючную Виндос. Но дядя Билл кинул Саурона на большие бабки. И решил тогда Саурон отомстить всем подряд. Для этого он придумал мегавирус, который реально менял людям мозги и делал их злобными орками. А тупой дядя Билл фишку не просек, и сдуру создал подпольную корпорацию Мордор, где злобный Саурон и реализовал свой план, внедрившись в главный компьютер, и, чисто по старой советской привычке подбив на помощь Сарумана, который трудился на эту корпорацию простым охранником…
Рейтинг на IMDB: 6.4/10 Рейтинг фильма на данный момент
Рейтинг MPAA: R
Рейтинг на:
Видео: 720х400 (4:2:0), 23.976 fps, XviD MPEG-4~1495 kbps avg, 0.217 bit/pixel
Аудио: 44 kHz, MP3, 2 ch, ~192.00 kbps avg
Доп. информация: Cмешной перевод студии ("Zombi Films"). В фильме присутствуют нехорошие слова.
В первую очередь фильм представляет собой стеб над бессмертным творением Толкина и толкинистами, но не ограничивается этим. Мат в фильме присутствует в заметном количестве, но не является самоцелью. То есть, если персонажи в той или иной ситуации реально могли бы употребить ненормативную лексику, то они ее употребляют, если же нет, то и мата нет. Кроме того в этом фильме присутствует откровенный стеб над некоторыми штампами, ставшими почти обязательными для жанра смешных переводов и потому уже не оригинальными. Что касается музыки: "левая" музыка в фильме присутствует, но только там, где она действительно кажется нужной - я не сторонник идеи вставлять "свою" музыку чуть ли не сплошняком на всю дорожку фильма. Видеоряд практически неизменен, так как это мой первый смешной перевод и я не стал пока заморачиваться с видеовставками. Надеюсь, каждый найдет в этом фильме что-то смешное и интересное для себя лично. Всем приятного просмотра!

General
Complete name: D:\Моя\Раздача\Logovo_kozla_[tfile.ru]\Logovo_Kozla.avi
Format: AVI
Format/Info: Audio Video Interleave
File size: 1.13 GiB
Duration: 1h 35mn
Overall bit rate: 1 699 Kbps

Video
ID: 0
Format: MPEG-4 Visual
Format profile: Advanced Simple@L5
Format settings, BVOP: Yes
Format settings, QPel: No
Format settings, GMC: No warppoints
Format settings, Matrix: Custom
Codec ID: XVID
Codec ID/Hint: XviD
Duration: 1h 35mn
Bit rate: 1 495 Kbps
Width: 720 pixels
Height: 400 pixels
Display aspect ratio: 16:9
Frame rate: 23.976 fps
Resolution: 8 bits
Colorimetry: 4:2:0
Scan type: Progressive
Bits/(Pixel*Frame): 0.217
Stream size: 1 019 MiB (88%)
Writing library: XviD 1.2.0.dev47 (UTC 2006-11-01)

Audio
ID: 1
Format: MPEG Audio
Format version: Version 1
Format profile: Layer 3
Codec ID: 55
Codec ID/Hint: MP3
Duration: 1h 35mn
Bit rate mode: Constant
Bit rate: 192 Kbps
Channel(s): 2 channels
Sampling rate: 44.1 KHz
Video delay: 26ms
Stream size: 131 MiB (11%)
Alignment: Split accross interleaves
Interleave, duration: 26 ms (0.63 video frame)











реклама партнёра


Вернуться к началу
 Профиль Отправить личное сообщение  
 
   Похожие торренты   Автор   Торрент   Размер 
В этой теме нет новых непрочитанных сообщений. Обитель зла. Пенталогия / Resident Evil. Pentalogy [Ужасы, фантастика, боевик, 2002-2012] HDRip, 5Dub

salma3

165 | 36

5.93 ГБ

В этой теме нет новых непрочитанных сообщений. Обитель зла: Пенталогия / Resident Evil: Pentalogy [ужасы, фантастика, 2002, 2004, 2007, 2010, 2012] BDRip, Avo [Гаврилов]

salma3

10 | 3

7.28 ГБ

В этой теме нет новых непрочитанных сообщений. Волчье логово / Логово волков / Raised by Wolves [ужасы, 2014] DVDRip, Mvo

salma3

215 | 70

1.37 ГБ

В этой теме нет новых непрочитанных сообщений. Resident Evil 0 / biohazard 0 HD REMASTER [RPG, 3D, 3rd Person, 2016] [RePack]

Sykre

10 | 0

5.88 ГБ

В этой теме нет новых непрочитанных сообщений. Resident Evil 4 Ultimate HD Edition [Action, RPG, 2014] [Лицензия]

Dracon

57 | 8

11.25 ГБ

В этой теме нет новых непрочитанных сообщений. Resident Evil: Revelations 2 [Episode 1 - Box Set] [Action, 3D, 2015] [RePack]

Dracon

4 | 3

3.39 ГБ

В этой теме нет новых непрочитанных сообщений. Resident Evil - Biohazard HD REMASTER [Survival Horror, 2015] [RePack]

Dracon

361 | 161

9.64 ГБ


Начать новую тему Ответить на тему  [ 1 сообщение ] 




Для Мосгорсуда, Роскомнадзора и рекламодателей:: mosgorsud-torrent[собачка]yandex.ru