Торрент файл
скачать торрент магнет ссылка Добавлен: 25 май 2011, 23:30
Размер: 885.68 МБ
Сидеров: 5
Личеров: 4
Автор

СообщениеДобавлено: 25 май 2011, 23:30 

Не в сети
Администратор
Дата регистрации:
08 апр 2010, 18:00
Спасибо: 1075 / 220
Сообщения: 17131
Отряд Америка. Всемирная Полиция / Team America: World Police

Перевод: Авторский (Гоблинa), cубтитры: отсутствуют
Формат: DVDRip, AVI, XviD, AC3
Страна: США
Режиссер: Трэй Паркер
Жанр: пародия, боевик
Продолжительность: 01:38:18
Год выпуска: 2004
В ролях: Трэй Паркер, Мэтт Стоун, Кристен Миллер, Масаса, Дэрен Норрис, Фил Хендри
Описание: Если хотите хорошей сатиры на тему войны Америки с терроризмом, лучше этого не найдете. Команда "Америка"! Круче ребят отродясь не бывало! Команда "Америка" всегда готова прийти на помощь! Если где террористы замышляют чёрное дело - команда тут как тут! Эти бравые парни и девчонки наведут порядок во всём мире, даже если… их об этом никто не просит. Когда очередная угроза нависла над миром, команда "Америка" решается на самый отчаянный шаг: вербует бродвейского актёра Гэри Джонстона, чтобы тот под видом арабского террориста проник в логово врагов и разузнал место нахождения оружия массового поражения. И вроде бы миссия с блеском выполнена, но что такое? - на команду обозлился весь мир во главе с "Гильдией актёров", а земля снова под угрозой глобального теракта...
Рейтинг на IMDB: 7.3/10 Рейтинг фильма на данный момент
Рейтинг MPAA: R
Рейтинг на:
Видео: 544x240 (2.27:1), 23.976 fps, XviD build 45 ~540 kbps avg, 0.17 bit/pixel
Аудио 1: Русский: 48 kHz, AC3 Dolby Digital, 2/0 (L,R) ch, ~256.00 kbps avg (Гоблин)[/field][/field]
Аудио 2: Английский: 48 kHz, AC3 Dolby Digital, 3/2 (L,C,R,l,r) + LFE ch, ~448.00 kbps avg (Оригинал)[/field][/field]
General
Complete name: D:\Моя\Раздача\Otryad_Amerika_[tfile.ru]\Otrjad_amerika.avi
Format: AVI
Format/Info: Audio Video Interleave
File size: 886 MiB
Duration: 1h 38mn
Overall bit rate: 1 260 Kbps
Writing application: VirtualDubModRus 1.5.10.2 (build 2542/release)
Writing library: VirtualDubMod build 2542/release

Video
ID: 0
Format: MPEG-4 Visual
Format profile: Advanced Simple@L5
Format settings, BVOP: Yes
Format settings, QPel: No
Format settings, GMC: No warppoints
Format settings, Matrix: Custom
Codec ID: XVID
Codec ID/Hint: XviD
Duration: 1h 38mn
Bit rate: 541 Kbps
Width: 544 pixels
Height: 240 pixels
Display aspect ratio: 2.25:1
Frame rate: 23.976 fps
Resolution: 8 bits
Colorimetry: 4:2:0
Scan type: Progressive
Bits/(Pixel*Frame): 0.173
Stream size: 381 MiB (43%)
Writing library: XviD 1.2.0.dev45 (UTC 2006-07-10)

Audio #1
ID: 1
Format: AC-3
Format/Info: Audio Coding 3
Codec ID: 2000
Duration: 1h 38mn
Bit rate mode: Constant
Bit rate: 256 Kbps
Channel(s): 2 channels
Channel positions: L R
Sampling rate: 48.0 KHz
Stream size: 180 MiB (20%)
Alignment: Split accross interleaves
Interleave, duration: 42 ms (1.00 video frame)
Interleave, preload duration: 500 ms

Audio #2
ID: 2
Format: AC-3
Format/Info: Audio Coding 3
Codec ID: 2000
Duration: 1h 38mn
Bit rate mode: Constant
Bit rate: 448 Kbps
Channel(s): 6 channels
Channel positions: Front: L C R, Surround: L R, LFE
Sampling rate: 48.0 KHz
Stream size: 315 MiB (36%)
Alignment: Split accross interleaves
Interleave, duration: 42 ms (1.00 video frame)
Interleave, preload duration: 500 ms











реклама партнёра


Вернуться к началу
 Профиль Отправить личное сообщение  
 
   Похожие торренты   Автор   Торрент   Размер 
В этой теме нет новых непрочитанных сообщений. Эйр Америка / Air America [боевик, комедия, 1990] BDRip, Mvo

salma3

50 | 8

1.46 ГБ

В этой теме нет новых непрочитанных сообщений. Полиция / Police [драма, криминал, 1985] DVDRip, Mvo

salma3

17 | 5

1.49 ГБ

В этой теме нет новых непрочитанных сообщений. Отряд самоубийц / Suicide Squad (Фантастика, боевик, триллер, комедия, криминал, приключения, 2016) BDRip 1080p от New-Team & qqss44 | Театральная версия | Лицензия

marya111

1498 | 328

7.74 ГБ

В этой теме нет новых непрочитанных сообщений. Полиция Мумбая / Mumbai Police [триллер, детектив, 2013] HDRip, Mvo

salma3

6 | 4

1.46 ГБ

В этой теме нет новых непрочитанных сообщений. Полиция Мумбая / Mumbai Police [Драма, детектив, 2013] HDRip, Sub

salma3

6 | 6

1.46 ГБ

В этой теме нет новых непрочитанных сообщений. Госпожа Америка / Mistress America [Комедия, 2015] HDRip, Mvo [iTunes]

Nickolas3435

302 | 12

1.37 ГБ

В этой теме нет новых непрочитанных сообщений. Госпожа Америка / Mistress America [Комедия, 2015] BDRip 1080p, Mvo [iTunes]

Dracon

37 | 2

6.78 ГБ


Начать новую тему Ответить на тему  [ 1 сообщение ] 




Для Мосгорсуда, Роскомнадзора и рекламодателей:: mosgorsud-torrent[собачка]yandex.ru