Оценка торрента
5 0%  0%  [ 0 ]
4 0%  0%  [ 0 ]
3 0%  0%  [ 0 ]
2 0%  0%  [ 0 ]
1 0%  0%  [ 0 ]
5 0%  0%  [ 0 ]
4 0%  0%  [ 0 ]
3 0%  0%  [ 0 ]
2 0%  0%  [ 0 ]
1 0%  0%  [ 0 ]
Всего голосов : 0
Торрент файл
скачать торрент магнет ссылка Добавлен: 25 май 2011, 15:40
Размер: 893.65 МБ
Сидеров: 43
Личеров: 7
Автор

СообщениеДобавлено: 25 май 2011, 15:40 

Не в сети
Супермодератор
Аватара пользователя
Дата регистрации:
22 май 2010, 11:03
Возраст: 31
Спасибо: 7509 / 13
Сообщения: 49940
Невероятный Халк / The Incredible Hulk


Перевод: Профессиональный (полное дублирование), cубтитры: отсутствуют
Формат: BDRip, MKV, H.264, MP3
Страна: США
Режиссер: Луи Летерье
Жанр: фантастика, боевик, триллер
Продолжительность: 01:52:14
Год выпуска: 2008
В ролях: Эдвард Нортон, Лив Тайлер, Тим Рот, Уильям Херт, Тим Блейк Нельсон, Ти Баррелл, Кристина Сабот, Лу Ферриньо, Пол Соулз, Дебора Наскименто, Грег Брайк, Крис Оуенс, Адриан Хейн, Джон МакДональд, Шон МакКомб, Саймон Вонг, Пэдро Сальвин, Раймундо Камарго Наскименто

Описание: История доктора Брюса Баннера, который ищет лекарство от своего необычного «заболевания», превращающего его во время эмоционального стресса в гигантского зеленого монстра Халка. Находясь в бегах от армии, стремящейся его захватить, Брюс почти находит лекарство, но все старания идут прахом, когда у Халка вдруг появляется новый, невероятно сильный противник.

Рейтинг на IMDB: 7.1/1076,544 votes
Рейтинг MPAA: PG-13
Видео: MPEG4 Video (H264) 720x304 23.98fps
Аудио: MPEG Audio Layer 3 48000Hz stereo
Доп. информация:

Format: Matroska
File size: 894 MiB
Duration: 1h 52mn
Overall bit rate: 1 113 Kbps
Encoded date: UTC 2010-01-11 05:26:20
Writing application: mkvmerge v2.9.7 ('Tenderness') built on Jul1 2009 18:43:35
Writing library: libebml v0.7.7 + libmatroska v0.8.1

Video
ID: 1
Format: AVC
Format/Info: Advanced Video Codec
Format profile: High@L3.1
Format settings, CABAC: Yes
Format settings, ReFrames: 16 frames
Muxing mode: Container profile=Unknown@3.1
Codec ID: V_MPEG4/ISO/AVC
Duration: 1h 52mn
Bit rate: 963 Kbps
Nominal bit rate: 983 Kbps
Width: 720 pixels
Height: 304 pixels
Display aspect ratio: 2.35:1
Frame rate: 23.976 fps
Resolution: 24 bits
Colorimetry: 4:2:0
Scan type: Progressive
Bits/(Pixel*Frame): 0.183
Stream size: 772 MiB (86%)
Title: Невероятный Халк
Writing library: x264 core 68 r1183M f21daff
Encoding settings: cabac=1 / ref=16 / deblock=1:-1:-1 / analyse=0x3:0x133 / me=tesa / subme=9 / psy_rd=1.0:0.0 / mixed_ref=1 / me_range=32 / chroma_me=1 / trellis=2 / 8x8dct=1 / cqm=0 / deadzone=21,11 / chroma_qp_offset=-4 / threads=3 / nr=0 / decimate=0 / mbaff=0 / bframes=4 / b_pyramid=1 / b_adapt=2 / b_bias=0 / direct=3 / wpredb=1 / keyint=250 / keyint_min=25 / scenecut=40 / rc=2pass / bitrate=983 / ratetol=1.0 / qcomp=0.60 / qpmin=10 / qpmax=51 / qpstep=4 / cplxblur=20.0 / qblur=0.5 / ip_ratio=1.40 / pb_ratio=1.30 / aq=1:1.00 / zones=152116,161452,q=40
Language: English

Audio
ID: 2
Format: MPEG Audio
Format version: Version 1
Format profile: Layer 3
Format_Settings_Mode: Joint stereo / MS Stereo
Codec ID: A_MPEG/L3
Codec ID/Hint: MP3
Duration: 1h 52mn
Bit rate mode: Variable
Bit rate: 128 Kbps
Nominal bit rate: 135 Kbps
Channel(s): 2 channels
Sampling rate: 48.0 KHz
Resolution: 16 bits
Stream size: 103 MiB (12%)
Title: Невероятный Халк
Writing library: LAME3.98r
Encoding settings: -m j -V 4 -q 3 -lowpass 17 --abr 135
Language: Russian



--Получив полный контроль над экранизациями своих комиксов, студия Marvel смогла сделать то, о чем ее давно просили фэны, - сплести вместе фильмы о супергероях, знакомых друг с другом в исходных комиксах. Так, в «Невероятном Халке» будет небольшая роль у Роберта Дауни-младшего в образе Железного человека.

--В первом «Халке» заглавный герой мог увеличиватся в размере и достигать невероятной величины. В картине Леттерье от этого отказались. В полном соответствии с комиксом, Халк во второй картине примерно 2 метра 70 см. (9 футов) в высоту. Также он не похож на Эдварда Нортона, но на его лице есть шрам и родинка там же, где и у актера.

--Студия утверждает, что это не сиквел «Халка» 2003 года, а новая киноадаптация комикса от Marvel.

--Эдвард Нортон, известный тем, что часто переписывает сценарии картин, в которых снимается, и в этот раз принял участие в разработке сценария, отредактировав его под себя, в результате чего в картине появились новые персонажи.

--Все вооружение в фильме имеет бренд «Stark Industries», то есть компании Тони Старка, Железного человека — другого персонажа комиксов Marvel.

--Актер, играющий охранника, который пропускает Брюса Баннера за пиццу, также играл в фильме Халк 1977 года.

--Стэн Ли исполнил небольшую роль в фильме. Он сыграл человека который выпил газировку с инфицированной кровью.

--В начале фильма Брюс Баннер (Эдвард Нортон) смотрит бразильское ТВ. В одном из фильмов - «The Courtship of Eddie»s Father'(1969) - мужчине дают пощечину. Это актер Билл Биксби, игравший Брюса Баннера в сериале «Невероятный Халк» (197.

--По данному фильму была сделана одноименная игра.

--В оригинальных комиксах монстр носит фиолетовые штаны, вернее то что от них остается. Что интересно, когда Элизабет предлагает Брюсу надеть штаны фиолетового цвета, он отказывается, этот забавный момент объясняется тем, что в США одежду фиолетового света носят в основном представители сексуальных меньшинств.

--Основные съемки «Невероятного Халка» начались в июле 2007 года и продолжались 88 дней. Начали в Торонто, а закончили в ноябре в Рио-де-Жанейро.


Трейлеры: http://www.youtube.com/watch?v=E7a5LcTckfg






Желаю всем приятного просмотра!!




реклама партнёра


Вернуться к началу
 Профиль Отправить личное сообщение  
 
   Похожие торренты   Автор   Торрент   Размер 
В этой теме нет новых непрочитанных сообщений. Судный день / Doomsday [фантастика, боевик, 2008] BDRip 720p, Dub+Sub [Theatrical Cut]

salma3

156 | 19

6.76 ГБ

В этой теме нет новых непрочитанных сообщений. Невероятный Блинки Билл / Blinky Bill the Movie [мультфильм, приключения, семейный, 2015] BDRip 720p, Dub [iTunes]

salma3

19 | 5

3.51 ГБ

В этой теме нет новых непрочитанных сообщений. Заноза / Splinter [ужасы, фантастика, триллер, 2008] BDRip 720p, Mvo

salma3

141 | 16

4.36 ГБ

В этой теме нет новых непрочитанных сообщений. Птицы войны / Warbirds [ужасы, фантастика, триллер, детектив, военный, 2008] BDRip, Mvo+Avo

salma3

1 | 2

1.46 ГБ

В этой теме нет новых непрочитанных сообщений. Звездный десант 3: Мародер / Starship Troopers 3: Marauder [фантастика, боевик, приключения, 2008] BDRip 1080p, Mvo

salma3

38 | 5

11.64 ГБ

В этой теме нет новых непрочитанных сообщений. Звездные врата: Атлантида / Stargate: Atlantis [S04] [Фантастика, боевик, приключения, 2007-2008] BDRip 1080p, Mvo [ТВ3]

salma3

11 | 7

79.5 ГБ

В этой теме нет новых непрочитанных сообщений. Звездный десант 3: Мародер / Starship Troopers 3: Marauder [фантастика, боевик, приключения, 2008] BDRip 720p, Mvo+SUB

salma3

73 | 8

5.52 ГБ


Начать новую тему Ответить на тему  [ 1 сообщение ] 




Для Мосгорсуда, Роскомнадзора и рекламодателей:: mosgorsud-torrent[собачка]yandex.ru