Торрент файл
скачать торрент магнет ссылка Добавлен: 25 май 2011, 15:39
Размер: 1.46 ГБ
Сидеров: 34
Личеров: 4
Автор

СообщениеДобавлено: 25 май 2011, 15:39 

Не в сети
Супермодератор
Аватара пользователя
Дата регистрации:
22 май 2010, 11:03
Возраст: 31
Спасибо: 7518 / 13
Сообщения: 49940
Смертельная битва 2: Истребление / Mortal Kombat: Annihilation

Перевод: Профессиональный (многоголосый, закадровый), cубтитры: отсутствуют
Формат: DVDRip, MKV, H.264, AC3
Страна: США
Режиссер: Джон Р. Леонетти
Жанр: фантастика, боевик, триллер, фэнтези, приключения
Продолжительность: 01:21:04
Год выпуска: 1997

В ролях: Робин Шоу, Джеймс Римар, Талиса Сото, Сандра Хесс, Брайан Томпсон, Линн «Красный» Уильямс, Рейнер Шёне, Дерон Макби, Музетта Вандер, Марджин Холден.

Описание: Император Внеземелья Шао Кан прибывает на Землю, чтобы лично предупредить ее жителей о своих намерениях: уничтожить мир земной, и сделать все это за семь библейских дней. В числе его подручных — роботы, обладающие инстинктами и приемами ниндзя, четырехрукая дева Шива и звероподобный человек Мотарро. Но им противостоят герои Земли во главе с самим лордом Рейденом… Ожидается фейерверк единоборств!

Рейтинг на IMDB: 3.10/10(15 802)
Рейтинг MPAA: PG-13

Видео: MPEG4 Video (H264) 720x392 (16:9) 25.00fps1622 Kbps0.23 Bits/Pixel
Аудио 1: Dolby AC3 48000Hz 6ch448 Kbps (Russian)
Аудио 2: Dolby AC3 48000Hz 6ch448 Kbps (English)


бюджет: $30 000 000
сборы в США: $35 927 406
сборы в мире: + $15 449 455 = $51 376 861

зрители:
США - 7.66 млн.Франция - 257.9 тыс.Великобритания - 158.3 тыс.

премьера (мир): 21 ноября 1997
релиз на DVD: 20 ноября 2008, 21 августа 2008, «CP-DIGITAL»

Format: Matroska
File size: 1.46 GiB
Duration: 1h 21mn
Overall bit rate: 2 570 Kbps
Encoded date: UTC 2009-05-28 08:26:24
Writing application: mkvmerge v2.4.1 ('Use Me') built on Dec5 2008 18:30:05
Writing library: libebml v0.7.7 + libmatroska v0.8.1

Video
ID: 1
Format: AVC
Format/Info: Advanced Video Codec
Format profile: High@L3.0
Format settings, CABAC: Yes
Format settings, ReFrames: 5 frames
Muxing mode: Container profile=Unknown@3.0
Codec ID: V_MPEG4/ISO/AVC
Duration: 1h 21mn
Bit rate: 1 622 Kbps
Nominal bit rate: 1 670 Kbps
Width: 720 pixels
Height: 392 pixels
Display aspect ratio: 16:9
Frame rate: 25.000 fps
Resolution: 8 bits
Colorimetry: 4:2:0
Scan type: Progressive
Bits/(Pixel*Frame): 0.230
Stream size: 941 MiB (63%)
Writing library: x264 core 67 r1148M 400740b
Language: English

Audio #1
ID: 2
Format: AC-3
Format/Info: Audio Coding 3
Codec ID: A_AC3
Duration: 1h 21mn
Bit rate mode: Constant
Bit rate: 448 Kbps
Channel(s): 6 channels
Channel positions: Front: L C R, Surround: L R, LFE
Sampling rate: 48.0 KHz
Stream size: 260 MiB (17%)
Language: Russian

Audio #2
ID: 3
Format: AC-3
Format/Info: Audio Coding 3
Codec ID: A_AC3
Duration: 1h 21mn
Bit rate mode: Constant
Bit rate: 448 Kbps
Channel(s): 6 channels
Channel positions: Front: L C R, Surround: L R, LFE
Sampling rate: 48.0 KHz
Stream size: 260 MiB (17%)
Language: English










реклама партнёра


Вернуться к началу
 Профиль Отправить личное сообщение  
 
   Похожие торренты   Автор   Торрент   Размер 
В этой теме нет новых непрочитанных сообщений. Смертельная битва 2: Истребление / Mortal Kombat: Annihilation [фантастика, фэнтези, боевик, 1997] BDRip, Mvo

salma3

149 | 7

1.46 ГБ

В этой теме нет новых непрочитанных сообщений. Смертельная битва. Дилогия / Mortal Kombat. Dilogy [фантастика, фэнтези, боевик, триллер, приключения, 1995, 1997] BDRip-AVC, Mvo

salma3

85 | 16

2.92 ГБ

В этой теме нет новых непрочитанных сообщений. Смертельная битва. Дилогия / Mortal Kombat. Dilogy [фантастика, фэнтези, боевик, 1995-1997] BDRip 720p, Mvo+Dvo+Avo+Sub

salma3

87 | 11

11.81 ГБ

В этой теме нет новых непрочитанных сообщений. Смертельная битва / Mortal Kombat [фантастика, фэнтези, боевик, 1995] BDRip, Mvo

salma3

161 | 8

1.46 ГБ

В этой теме нет новых непрочитанных сообщений. Ultimate Mortal Kombat 3 v1.0 [Hack]

Xboxer_83

0 | 4

6.01 МБ

В этой теме нет новых непрочитанных сообщений. Mortal Kombat X [Action, Fighting, 2015] [Лицензия]

Марик

145 | 35

31.33 ГБ

В этой теме нет новых непрочитанных сообщений. Mortal Kombat Komplete Edition [Fighting, 2013] [Steam-Rip]

Dracon

182 | 18

8.16 ГБ


Начать новую тему Ответить на тему  [ 1 сообщение ] 




Для Мосгорсуда, Роскомнадзора и рекламодателей:: mosgorsud-torrent[собачка]yandex.ru