Торрент файл
скачать торрент магнет ссылка Добавлен: 25 май 2011, 15:03
Размер: 2.18 ГБ
Сидеров: 23
Личеров: 6
Автор

СообщениеДобавлено: 25 май 2011, 15:03 

Не в сети
Супермодератор
Аватара пользователя
Дата регистрации:
22 май 2010, 11:03
Возраст: 31
Спасибо: 7509 / 13
Сообщения: 49940
Пандорум / Pandorum



Перевод: Профессиональный (полное дублирование)
Субтитры: Русские,Английские

Формат: НDRip, MKV, H.264, AC3
Страна: Германия, США
Режиссер: Кристиан Алверт / Christian Alvart
Жанр: Фантастика, боевик, триллер
Продолжительность: 01:48:05
Год выпуска: 2009

В ролях: Деннис Куэйд, Бен Фостер, Кэм Жиганде, Антье Трое, Кунг Ле, Эдди Роус, Норман Ридус, Андре Хеннике, Фридерике Кемптер, Нильс-Бруно Шмидт

Описание: В безднах космоса движется звездолет. Два члена команды, пробудившиеся от гиперсна, оказываются в сложной ситуации: оборудование не работает, вспомнить они ничего не могут. Какова была их миссия? Сколько времени прошло? Где они? Кто они? На все эти вопросы у них нет ответов. К тому же, на корабле обнаруживаются чужие — злобные воины, которые крушат все на своем пути. У космических путешественников очень мало времени. Теперь для них собственные жизни — не самое главное, ибо только от них двоих, возможно, зависит спасение человечества. Нужно любой ценой восстановить управление кораблем, пока загадочный Пандорум не взял власть в свои руки.

Рейтинг Кинопоиск.RU:7.097
Рейтинг IMDB:6.9/10
Рейтинг MPAA:R


Видео: 1024x432 (2.35:1), MPEG4 AVC (x264) ~1 992 kbps avg,0.188 bit/pixel
Аудио#1: Русский:48 kHz, AC3, 6 ch, 448.00 kbps [Полное дублирование]
Аудио#2: Английский:48 kHz, AC3, 6 ch, 448.00 kbps [Оригинал]



[b]
MediaInfo"]
General
Complete name: E:\Кино\УЖАСЫ\Pandorum.mkv
Format: Matroska
File size: 2.18 GiB
Duration: 1h 48mn
Overall bit rate: 2 889 Kbps
Movie name: Пандорум
Encoded date: UTC 2010-07-21 04:33:32
Writing application: mkvmerge v2.9.7 ('Tenderness') built on Jul1 2009 18:43:35
Writing library: libebml v0.7.7 + libmatroska v0.8.1

Video
ID: 1
Format: AVC
Format/Info: Advanced Video Codec
Format profile: High@L4.1
Format settings, CABAC: Yes
Format settings, ReFrames: 5 frames
Muxing mode: Container profile=Unknown@4.1
Codec ID: V_MPEG4/ISO/AVC
Duration: 1h 48mn
Bit rate: 1 992 Kbps
Width: 1 024 pixels
Height: 432 pixels
Display aspect ratio: 2.35:1
Frame rate: 23.976 fps
Color space: YUV
Chroma subsampling: 4:2:0
Bit depth: 8 bits
Scan type: Progressive
Bits/(Pixel*Frame): 0.188
Stream size: 1.46 GiB (67%)
Title: Пандорум
Writing library: x264 core 98 r1649 c54c47d
Encoding settings: cabac=1 / ref=5 / deblock=1:-2:-1 / analyse=0x3:0x133 / me=umh / subme=9 / psy=1 / psy_rd=1.00:0.00 / mixed_ref=1 / me_range=32 / chroma_me=1 / trellis=2 / 8x8dct=1 / cqm=0 / deadzone=21,11 / fast_pskip=0 / chroma_qp_offset=-2 / threads=3 / sliced_threads=0 / nr=0 / decimate=1 / interlaced=0 / constrained_intra=0 / bframes=10 / b_pyramid=2 / b_adapt=2 / b_bias=0 / direct=3 / weightb=1 / weightp=2 / keyint=250 / keyint_min=25 / scenecut=40 / intra_refresh=0 / rc_lookahead=40 / rc=2pass / mbtree=1 / bitrate=1992 / ratetol=1.0 / qcomp=0.60 / qpmin=10 / qpmax=51 / qpstep=4 / cplxblur=20.0 / qblur=0.5 / ip_ratio=1.40 / aq=1:1.00
Language: English

Audio #1
ID: 2
Format: AC-3
Format/Info: Audio Coding 3
Mode extension: CM (complete main)
Codec ID: A_AC3
Duration: 1h 48mn
Bit rate mode: Constant
Bit rate: 448 Kbps
Channel(s): 6 channels
Channel positions: Front: L C R, Side: L R, LFE
Sampling rate: 48.0 KHz
Stream size: 346 MiB (16%)
Title: AC3
Language: Russian

Audio #2
ID: 3
Format: AC-3
Format/Info: Audio Coding 3
Mode extension: CM (complete main)
Codec ID: A_AC3
Duration: 1h 48mn
Bit rate mode: Constant
Bit rate: 448 Kbps
Channel(s): 6 channels
Channel positions: Front: L C R, Side: L R, LFE
Sampling rate: 48.0 KHz
Stream size: 346 MiB (16%)
Title: AC3
Language: English

Text #1
ID: 4
Format: UTF-8
Codec ID: S_TEXT/UTF8
Codec ID/Info: UTF-8 Plain Text
Language: Russian

Text #2
ID: 5
Format: UTF-8
Codec ID: S_TEXT/UTF8
Codec ID/Info: UTF-8 Plain Text
Language: English

* Фильм снимался на знаменитой студии Бабельсберг в Берлине, где ещё Фриц Ланг создавал свой «Метрополис».
* На Западе фильм показывали в кинотеатрах с поддержкой D-Box. Это система вибраций и движений, которая монтируется в кресло и позволяет глубже погрузится в действие.
















реклама партнёра


Вернуться к началу
 Профиль Отправить личное сообщение  
 
   Похожие торренты   Автор   Торрент   Размер 
В этой теме нет новых непрочитанных сообщений. Ночная бригада / The Night Crew (Кристиан Сесма) [боевик, триллер, 2015] HDRip, Mvo [iTunes]

Dracon

9099 | 340

1.37 ГБ

В этой теме нет новых непрочитанных сообщений. Воздух / Air (Кристиан Кантамесса) [Фантастика, триллер, 2015] WEB-DL 720p, avo

Dracon

3385 | 185

2.93 ГБ

В этой теме нет новых непрочитанных сообщений. Воздух / Air (Кристиан Кантамесса) [Фантастика, триллер, 2015] WEB-DLRip, avo

Dracon

3531 | 126

1.37 ГБ

В этой теме нет новых непрочитанных сообщений. Воздух / Air (Кристиан Кантамесса) [Фантастика, триллер, 2015] BDRip, Mvo [Лицензия]

Dracon

11545 | 272

1.44 ГБ

В этой теме нет новых непрочитанных сообщений. Воздух / Air (Кристиан Кантамесса) [Фантастика, триллер, 2015] BDRip 1080p, Mvo+Sub [Лицензия]

Dracon

1374 | 63

10.73 ГБ

В этой теме нет новых непрочитанных сообщений. Воздух / Air (Кристиан Кантамесса) [Фантастика, триллер, 2015] BDRip 720p, Mvo+Sub [Лицензия]

Dracon

2129 | 68

5.24 ГБ

В этой теме нет новых непрочитанных сообщений. Рука Дьявола / Where the Devil Hides (Кристиан Е. Кристиансен) [триллер, 2014] HDRip, dub [Чистый звук]

Dracon

11 | 0

1.36 ГБ


Начать новую тему Ответить на тему  [ 1 сообщение ] 




Для Мосгорсуда, Роскомнадзора и рекламодателей:: mosgorsud-torrent[собачка]yandex.ru