Торрент файл
скачать торрент магнет ссылка Добавлен: 25 май 2011, 15:00
Размер: 2.05 ГБ
Сидеров: 35
Личеров: 6
Автор

СообщениеДобавлено: 25 май 2011, 15:00 

Не в сети
Супермодератор
Аватара пользователя
Дата регистрации:
22 май 2010, 11:03
Возраст: 31
Спасибо: 7509 / 13
Сообщения: 49940
Универсальный солдат 3: Возрождение / Universal Soldier: Regeneration


Перевод: Профессиональный (многоголосый, закадровый), Субтитры: Отсутствуют

Формат: HDRip, MKV, Другой MPEG4, AC3
Страна: США
Режиссер: Джон Хайамс / John Hyams
Жанр: фантастика, боевик, триллер, драма
Продолжительность: 01:49:09
Год выпуска: 2009

В ролях: Дольф Лундгрен, Жан-Клод Ван Дамм, Андрей Арловский, Кори Джонсон, Захари Бахаров, Аки Авни, Гарри Купер, Джон Фу, Эмили Джойс, Джон Ласковски


Описание: Чеченский террорист по фамилии Топофф захватывает Чернобыльскую АЭС и угрожает взорвать ее. На его стороне - бывший сотрудник программы "Универсальный солдат", поставивший на службу террористу грозное оружие - одного из своих подопечных. Ситуация осложняется тем, что в заложниках оказываются дети видного государственного деятеля. Попытки освободить опасный объект превращаются в кровавую бойню. И тогда в схватку с модернизированным унисолом вступает Люк Девро. Однако его ждёт встреча не только со сбродом Топоффа и унисолом нового поколения, но и со своим старым знакомым - сержантом Эндрю Скоттом

Рейтинг Кинопоиск.RU: 4.219
Рейтинг IMDB: 5.8/10
Рейтинг MPAA: R

Видео: 1280 x 544(2.35:1), MPEG4 AVC (x264) ~1 868 kbps avg,0.108 bit/pixel
Аудио: :48 kHz,Audio Coding 3 (AC3), 6 ch, 384.00 kbps[Многоголосый закадровый]
Аудио: :48 kHz,Audio Coding 3 (AC3), 6 ch, 384.00 kbps[Профессиональный двухголосый]
Аудио: :48 kHz,Audio Coding 3 (AC3), 6 ch, 384.00 kbps[Оригинал]




[b]
Знаете ли вы, что..."]


*Сценарист Джон Фасано и его сын, Джон Коуди Фасано, разработали проекты спецкостюмов для старых и новых моделей универсальных солдат в US:TNG.

* Дольф Лундгрен был занят на съёмках картины в течение всего 5 дней, в то время, как съёмки Жан-Клода длились 20 дней.

* Универсальный солдат ещё будучи на стадии производства последовательно сменил 3 рабочих названия: «Новое начало» (A New Beginning), затем «Следующие поколение» (The Next Generation), пока не остановился на окончательном - «Универсальный солдат: Возрождение» (Universal Soldier: Regeneration).

General
Complete name: E:\Кино\БОЕВИКИ\Universal Soldier-Regeneration\Universal Soldier-Regeneration.mkv
Format: Matroska
File size: 2.05 GiB
Duration: 1h 36mn
Overall bit rate: 3 020 Kbps
Encoded date: UTC 2010-02-06 08:47:43
Writing application: mkvmerge v2.9.8 ('C'est le bon') built on Aug 13 2009 12:49:06
Writing library: libebml v0.7.7 + libmatroska v0.8.1

Video
ID: 1
Format: AVC
Format/Info: Advanced Video Codec
Format profile: High@L4.1
Format settings, CABAC: Yes
Format settings, ReFrames: 8 frames
Muxing mode: Container profile=Unknown@4.1
Codec ID: V_MPEG4/ISO/AVC
Duration: 1h 36mn
Bit rate: 1 868 Kbps
Width: 1 280 pixels
Height: 544 pixels
Display aspect ratio: 2.35:1
Frame rate: 23.976 fps
Color space: YUV
Chroma subsampling: 4:2:0
Bit depth: 8 bits
Scan type: Progressive
Bits/(Pixel*Frame): 0.112
Stream size: 1.22 GiB (60%)
Writing library: x264 core 80 r1376M 3feaec2
Encoding settings: cabac=1 / ref=8 / deblock=1:-2:-2 / analyse=0x3:0x113 / me=umh / subme=9 / psy=1 / psy_rd=0.2:0.0 / mixed_ref=1 / me_range=32 / chroma_me=1 / trellis=2 / 8x8dct=1 / cqm=0 / deadzone=21,11 / fast_pskip=0 / chroma_qp_offset=-1 / threads=3 / sliced_threads=0 / slices=2 / nr=0 / decimate=0 / mbaff=0 / constrained_intra=0 / bframes=6 / b_pyramid=2 / b_adapt=2 / b_bias=0 / direct=1 / wpredb=1 / wpredp=2 / keyint=250 / keyint_min=25 / scenecut=40 / rc_lookahead=42 / rc=2pass / mbtree=1 / bitrate=1868 / ratetol=1.0 / qcomp=0.60 / qpmin=10 / qpmax=51 / qpstep=4 / cplxblur=20.0 / qblur=0.5 / ip_ratio=1.40 / aq=1:1.00

Audio #1
ID: 2
Format: AC-3
Format/Info: Audio Coding 3
Mode extension: CM (complete main)
Codec ID: A_AC3
Duration: 1h 36mn
Bit rate mode: Constant
Bit rate: 384 Kbps
Channel(s): 2 channels
Channel positions: Front: L R
Sampling rate: 48.0 KHz
Stream size: 266 MiB (13%)

Audio #2
ID: 3
Format: AC-3
Format/Info: Audio Coding 3
Mode extension: CM (complete main)
Codec ID: A_AC3
Duration: 1h 36mn
Bit rate mode: Constant
Bit rate: 384 Kbps
Channel(s): 2 channels
Channel positions: Front: L R
Sampling rate: 48.0 KHz
Stream size: 266 MiB (13%)

Audio #3
ID: 4
Format: AC-3
Format/Info: Audio Coding 3
Mode extension: CM (complete main)
Codec ID: A_AC3
Duration: 1h 36mn
Bit rate mode: Constant
Bit rate: 384 Kbps
Channel(s): 2 channels
Channel positions: Front: L R
Sampling rate: 48.0 KHz
Stream size: 266 MiB (13%)












реклама партнёра


Вернуться к началу
 Профиль Отправить личное сообщение  
 
   Похожие торренты   Автор   Торрент   Размер 
В этой теме нет новых непрочитанных сообщений. Я солдат / I am soldier (Ронни Томпсон) [2014, боевик, триллер, военный, HDRip] dvo

Nickolas3435

912 | 26

1.45 ГБ

В этой теме нет новых непрочитанных сообщений. Солдат / Soldier [фантастика, боевик, драма, 1998] BDRip 1080p, Dub+2Mvo+2Avo+Sub

salma3

12 | 2

11.11 ГБ

В этой теме нет новых непрочитанных сообщений. Нация Z / Z Nation [S01-02] (Джон Хайамс, Абрам Кокс, Рэйчел Голденберг) [2015, Боевик, Драма, Ужасы, Фантастика, WEB-DL 720p | BaibaKo]

Dracon

11 | 25

40.23 ГБ

В этой теме нет новых непрочитанных сообщений. Нация Z / Z Nation [02х01-14 из 15] (Джон Хайамс, Абрам Кокс, Рэйчел Голденберг) [ужасы, фантастика, боевик, 2015] WEB-DLRip 1080p, Mvo [BaibaKo]

Dracon

12 | 45

24.87 ГБ

В этой теме нет новых непрочитанных сообщений. Нация Z / Z Nation [02х01-06 из 13] (Джон Хайамс, Абрам Кокс, Рэйчел Голденберг) [ужасы, фантастика, боевик, 2015] WEB-DLRip 1080p, Mvo [BaibaKo]

Dracon

78 | 282

10.67 ГБ

В этой теме нет новых непрочитанных сообщений. Нация Z / Z Nation [S01-02] (Джон Хайамс, Абрам Кокс, Рэйчел Голденберг) [ужасы, фантастика, боевик, 2014-2015] WEB-DLRip 720p, Mvo [LostFilm]

Dracon

22 | 107

36.03 ГБ

В этой теме нет новых непрочитанных сообщений. Первый мститель: Другая война / Captain America: The Winter Soldier [фантастика, боевик, приключения, 2014] HDRip, Dub [Лицензия]

salma3

1305 | 21

1.38 ГБ


Начать новую тему Ответить на тему  [ 1 сообщение ] 




Для Мосгорсуда, Роскомнадзора и рекламодателей:: mosgorsud-torrent[собачка]yandex.ru