Торрент файл
скачать торрент магнет ссылка Добавлен: 25 май 2011, 14:30
Размер: 2.13 ГБ
Сидеров: 46
Личеров: 5
Автор

СообщениеДобавлено: 25 май 2011, 14:30 

Не в сети
Супермодератор
Аватара пользователя
Дата регистрации:
22 май 2010, 11:03
Возраст: 31
Спасибо: 7509 / 13
Сообщения: 49940
Скайлайн / Skyline


Перевод: Профессиональный (полное дублирование), cубтитры: отсутствуют

Слоган: «Не смотри вверх»

Формат: DVDRip-AVC, MKV, H.264, AC3
Страна: США
Режиссер: Колин Штраус, Грег Штраус
Жанр: Фантастика, триллер
Продолжительность: 01:28:44
Год выпуска: 2010

В ролях: Эрик Бальфур, Скотти Томпсон, Дэвид Зайас, Дональд Фэйсон, Бриттани Дэниэл, Кристал Рид, Нил Хопкинс, Дж. Пол Бомер, Таня Ньюболд, Пэм Левин

Описание: После вечеринки компания друзей просыпается от того, что в окно ударяет яркий свет. Они видят, как людей на улице затягивает в столп света и они поднимаются куда-то вверх. Вскоре после этого на планете начинается зачистка оставшихся людей. Выжившим предстоит бороться за жизнь с инопланетными тварями.

Рейтинг на Кинопоиск.RU: 4.714
Рейтинг на IMDB: 4.6/10
Рейтинг MPAA: PG-13

Видео: 704x384 (16:9), 25 fps, MPEG4 AVC (x264) High@L4.1, ~2 345 Kbps avg, 0.337 bit/pixel
Аудио #1:Русский: 48 KHz, AC3, 6 Ch, ~448 kbps avg Профессиональный (полное дублирование)
Аудио #2:Английский: 48 KHz, AC3, 6 Ch, ~448 kbps avg (оригинал)

Дополнительная информация:
бюджет = $10 000 000
сборы в США = $20 448 045
сборы в мире + $26 300 000 = $46 748 045
сборы в России = $9 201 237




Video #1
ID : 1
Format : AVC
Format/Info : Advanced Video Codec
Format profile : High@L3.1
Format settings, CABAC : Yes
Format settings, ReFrames : 4 frames
Muxing mode : Container profile=Unknown@3.1
Codec ID : V_MPEG4/ISO/AVC
Duration : 1h 28mn
Bit rate : 2 279 Kbps
Nominal bit rate : 2 345 Kbps
Width : 704 pixels
Height : 384 pixels
Display aspect ratio : 16:9
Frame rate : 25.000 fps
Resolution : 24 bits
Colorimetry : 4:2:0
Scan type : Progressive
Bits/(Pixel*Frame) : 0.337
Stream size : 1.41 GiB (66%)
Writing library : x264 core 92 r1510 33d382a
Encoding settings : cabac=1 / ref=3 / deblock=1:-1:0 / analyse=0x3:0x113 / me=hex / subme=7 / psy=1 / psy_rd=1.00:0.00 / mixed_ref=1 / me_range=16 / chroma_me=1 / trellis=1 / 8x8dct=1 / cqm=0 / deadzone=21,11 / fast_pskip=1 / chroma_qp_offset=-2 / threads=3 / sliced_threads=0 / nr=0 / decimate=1 / interlaced=0 / constrained_intra=0 / bframes=3 / b_pyramid=2 / b_adapt=1 / b_bias=0 / direct=3 / wpredb=1 / wpredp=2 / keyint=250 / keyint_min=25 / scenecut=40 / intra_refresh=0 / rc_lookahead=40 / rc=2pass / mbtree=1 / bitrate=2345 / ratetol=1.0 / qcomp=0.60 / qpmin=10 / qpmax=51 / qpstep=4 / cplxblur=20.0 / qblur=0.5 / ip_ratio=1.40 / aq=1:1.00
Audio #2
ID : 2
Format : AC-3
Format/Info : Audio Coding 3
Codec ID : A_AC3
Duration : 1h 28mn
Bit rate mode : Constant
Bit rate : 640 Kbps
Channel(s) : 6 channels
Channel positions : Front: L C R, Surround: L R, LFE
Sampling rate : 48.0 KHz
Stream size : 406 MiB (19%)
Audio #3
ID : 3
Format : AC-3
Format/Info : Audio Coding 3
Codec ID : A_AC3
Duration : 1h 28mn
Bit rate mode : Constant
Bit rate : 448 Kbps
Channel(s) : 6 channels
Channel positions : Front: L C R, Surround: L R, LFE
Sampling rate : 48.0 KHz
Stream size : 284 MiB (13%)








реклама партнёра


Вернуться к началу
 Профиль Отправить личное сообщение  
 
   Похожие торренты   Автор   Торрент   Размер 
В этой теме нет новых непрочитанных сообщений. Последние девушки / The Final Girls (Тодд Штраус-Шульсон) [2015, ужасы, комедия, BDRip-AVC | Лицензия] mvo

Dracon

686 | 43

1.46 ГБ

В этой теме нет новых непрочитанных сообщений. Последние девушки / The Final Girls (Тодд Штраус-Шульсон) [2015, ужасы, комедия, BDRip-AVC | Лицензия] mvo

Dracon

162 | 8

743.63 МБ

В этой теме нет новых непрочитанных сообщений. Последние девушки / The Final Girls (Тодд Штраус-Шульсон) [Ужасы, комедия, 2015] HDRip, Mvo [iTunes]

Dracon

2611 | 45

1.45 ГБ

В этой теме нет новых непрочитанных сообщений. Последние девушки / The Final Girls (Тодд Штраус-Шульсон) [2015, ужасы, комедия, BDRip-AVC | Лицензия]

Dracon

148 | 6

2.18 ГБ

В этой теме нет новых непрочитанных сообщений. Последние девушки / The Final Girls (Тодд Штраус-Шульсон) [Ужасы, комедия, 2015] BDRip 1080p, Mvo+Sub [Лицензия]

Dracon

277 | 60

12.24 ГБ

В этой теме нет новых непрочитанных сообщений. Последние девушки / The Final Girls (Тодд Штраус-Шульсон) [Ужасы, комедия, 2015] BDRip 720p, Mvo [iTunes]

Dracon

1001 | 60

4.61 ГБ

В этой теме нет новых непрочитанных сообщений. Последние девушки / The Final Girls (Тодд Штраус-Шульсон) [Ужасы, комедия, 2015] BDRip 1080p, Mvo [iTunes]

Dracon

585 | 25

6.8 ГБ


Начать новую тему Ответить на тему  [ 1 сообщение ] 




Для Мосгорсуда, Роскомнадзора и рекламодателей:: mosgorsud-torrent[собачка]yandex.ru