Торрент файл
скачать торрент магнет ссылка Добавлен: 25 май 2011, 14:19
Размер: 2.18 ГБ
Сидеров: 14
Личеров: 6
Автор

СообщениеДобавлено: 25 май 2011, 14:19 

Не в сети
Супермодератор
Аватара пользователя
Дата регистрации:
22 май 2010, 11:03
Возраст: 31
Спасибо: 7509 / 13
Сообщения: 49940
Маска / The Mask


Перевод: Профессиональный (многоголосый, закадровый), cубтитры: отсутствуют
Формат: HDRip, MKV, x264, AC3
Страна: США
Режиссер: Чак Рассел
Жанр: комедия, фэнтези, мелодрама
Продолжительность: 01:41:12
Год выпуска: 1994
В ролях: Джим Керри, Питер Ригерт, Питер Грин, Эми Ясбек, Кэмерон Диаз

Описание: Скромный, застенчивый служащий банка закомплексован настолько, что чувствует себя неуверенно с красивыми девушками. Волею судьбы к нему попадает волшебная маска, и Стенли Ипкис приобретает способность превращаться в неуязвимое мультяшное существо из забавных комиксов.
Он становится супергероем, готовым бороться с преступностью, как Бэтмен. Итак, днем он по-прежнему скромный и незадачливый служащий, а по ночам — супермен…




Видео: 1280x720 (16:9), 23,976 fps, V_MPEG4/ISO/AVC 2834 kbps avg, 0.128 bit/pixel
Аудио: 48 kHz, AC3 Dolby Digital, 3 (L,C,R) ch, 256 kbps avg


Общее
Уникальный идентификатор : 221174686344300893508399470437925737271 (0xA664B1F4812E940DAF871F9CD9655337)
Полное имя : D:\Маска\The_Mask_[tfile.ru].mkv
Формат : Matroska
Размер файла : 2,18 Гбайт
Продолжительность : 1 ч. 41 м.
Общий поток : 3089 Кбит/сек
Дата кодирования : UTC 2011-02-04 17:39:05
Программа кодирования : mkvmerge v4.4.0 ('Die Wiederkehr') сборка от Oct 31 2010 21:52:48
Библиотека кодирования : libebml v1.0.0 + libmatroska v1.0.0

Видео
Идентификатор : 1
Формат : AVC
Формат/Информация : Advanced Video Codec
Профиль формата : High@L3.1
Параметр CABAC формата : Да
Параметр ReFrames формата : 4 кадры
Режим смешивания : Header stripping
Идентификатор кодека : V_MPEG4/ISO/AVC
Продолжительность : 1 ч. 41 м.
Битрейт : 2834 Кбит/сек
Ширина : 1280 пикс.
Высота : 720 пикс.
Соотношение сторон : 16:9
Частота кадров : 23,976 кадр/сек
Цветовое пространство : YUV
Подвыборка цветности : 4:2:0
Битовая глубина : 8 бит
Тип развёртки : Прогрессивная
Бит/(Пиксели*Кадры) : 0.128
Размер потока : 1,96 Гбайт (90%)
Библиотека кодирования : x264 core 112 r1867 22bfd31
Настройки программы : cabac=1 / ref=3 / deblock=1:-1:-1 / analyse=0x3:0x113 / me=hex / subme=7 / psy=1 / psy_rd=1.00:0.15 / mixed_ref=1 / me_range=16 / chroma_me=1 / trellis=1 / 8x8dct=1 / cqm=0 / deadzone=21,11 / fast_pskip=1 / chroma_qp_offset=-3 / threads=3 / sliced_threads=0 / nr=0 / decimate=1 / interlaced=0 / constrained_intra=0 / bframes=3 / b_pyramid=2 / b_adapt=1 / b_bias=0 / direct=1 / weightb=1 / open_gop=0 / weightp=2 / keyint=250 / keyint_min=23 / scenecut=40 / intra_refresh=0 / rc_lookahead=40 / rc=2pass / mbtree=1 / bitrate=2834 / ratetol=1.0 / qcomp=0.60 / qpmin=0 / qpmax=51 / qpstep=4 / cplxblur=20.0 / qblur=0.5 / ip_ratio=1.40 / aq=1:1.00
Язык : English

Аудио
Идентификатор : 2
Формат : AC-3
Формат/Информация : Audio Coding 3
Расширение режима : CM (complete main)
Режим смешивания : Header stripping
Идентификатор кодека : A_AC3
Продолжительность : 1 ч. 41 м.
Вид битрейта : Постоянный
Битрейт : 256 Кбит/сек
Канал(ы) : 3 канала(ов)
Расположение каналов : Front: L R, Side: C
Частота : 48,0 КГц
Битовая глубина : 16 бит
Метод сжатия : С потерями
Размер потока : 185 Мбайт (8%)











реклама партнёра


Вернуться к началу
 Профиль Отправить личное сообщение  
 
   Похожие торренты   Автор   Торрент   Размер 
В этой теме нет новых непрочитанных сообщений. Маска Зорро / The Mask of Zorro [Боевик, мелодрама, приключения, вестерн, 1998] BDRip-AVC, Dub

salma3

31 | 2

1.46 ГБ

В этой теме нет новых непрочитанных сообщений. Маска смерти / Mask of Death [Боевик, триллер, 1996] DVDRip, Avo

salma3

69 | 28

1.4 ГБ

В этой теме нет новых непрочитанных сообщений. Маска обезьяны / The Monkey's Mask [триллер, криминал, детектив, 2000] DVDRip, Mvo

salma3

0 | 4

1.25 ГБ

В этой теме нет новых непрочитанных сообщений. Чёрная маска 2: Город Масок / Black Mask 2: City of Masks [фантастика, боевик, драма, 2002] BDRip 1080p, Mvo+Sub

salma3

29 | 8

8.58 ГБ

В этой теме нет новых непрочитанных сообщений. Трусонюх 2: Осадки в виде труселей / Извратная маска 2 (пародия, комедия, боевик, 2016) HDRip | L2

marya111

0 | 0

1.45 ГБ

В этой теме нет новых непрочитанных сообщений. Тень / The Shadow [боевик, фэнтези, приключения, 1994] HDRip, Mvo

salma3

0 | 2

1.46 ГБ

В этой теме нет новых непрочитанных сообщений. Охота За Сокровищем / Hua qi Shao Lin [фэнтези, боевик, мелодрама, 1994] DVDRip, Avo

salma3

10 | 3

1.37 ГБ


Начать новую тему Ответить на тему  [ 1 сообщение ] 




Для Мосгорсуда, Роскомнадзора и рекламодателей:: mosgorsud-torrent[собачка]yandex.ru