Торрент файл
скачать торрент магнет ссылка Добавлен: 25 май 2011, 14:18
Размер: 2.14 ГБ
Сидеров: 25
Личеров: 5
Автор

СообщениеДобавлено: 25 май 2011, 14:18 

Не в сети
Супермодератор
Аватара пользователя
Дата регистрации:
22 май 2010, 11:03
Возраст: 31
Спасибо: 7524 / 13
Сообщения: 49940
Смертельная гонка 2: Франкенштейн жив / Death Race 2

Перевод: Профессиональный (полное дублирование) Лицензия![/field]
Формат: HDRip, MKV, Другой MPEG4, AC3[/field]
Страна: ЮАР[/field]
Режиссер: Роэль Рейн[/field]
Жанр:фантастика, боевик, триллер[/field]
Продолжительность: 01:40:19[/field]
Год выпуска: 2010[/field]


Продюссер: Пол У. С. Андерсон, Джереми Болт, Майк Эллиот
Сценарий: Пол У. С. Андерсон, Тони Гиглио

В ролях
: Дэнни Трехо, Шон Бин, Винг Рэймс, Лорен Коэн, Люк Госс, Робин Шоу, Танита Феникс, Фредерик Колер, Хосе Ваз, Бёрн Штейнбах[/field]

Описание:
Действие происходит в ближайшем будущем, когда экономика США начнёт своё снижение и на страну обрушится волна насилия. Чтобы сдержать постоянно растущее уголовное население создаются частные тюрьмы. Худшая из этих тюрем — Терминал Айленд, где заключенным приходится воевать с другими заключенными за свою жизнь в телевизионном шоу.[/field]

Рейтинг на IMDB: 5,6 /10
Рейтинг Кинопоиск.RU: 5.483
Рейтинг MPAA: R

Информация о фильме:
[b]
Видео"]
Format : AVC
Format/Info : Advanced Video Codec
Format settings, CABAC : Yes
Format settings, ReFrames : 4 frames
Muxing mode : Container profile=Unknown@3.1
Codec ID : V_MPEG4/ISO/AVC
Duration : 1h 40mn
Bit rate : 2 609 Kbps
Width : 1 104 pixels
Height : 624 pixels
Display aspect ratio : 16:9
Frame rate : 23.976 fps
Resolution : 24 bits
Colorimetry : 4:2:0
Scan type : Progressive
Bits/(Pixel*Frame) : 0.158
Stream size : 1.82 GiB (85%)

[b]
Аудио"]
Format : AC-3
Format/Info : Audio Coding 3
Codec ID : A_AC3
Duration : 1h 40mn
Bit rate mode : Constant
Bit rate : 384 Kbps
Channel(s) : 6 channels
Channel positions : Front: L C R, Surround: L R, LFE
Sampling rate : 48.0 KHz
Video delay : 5ms
Stream size : 275 MiB (13%)
Language : Russian


[b]
Трейлер"]

[b]
Скриншоты"]






реклама партнёра


Вернуться к началу
 Профиль Отправить личное сообщение  
 
   Похожие торренты   Автор   Торрент   Размер 
В этой теме нет новых непрочитанных сообщений. Железный кулак 2 / The Man with the Iron Fists 2 (Роэль Рейн) [Боевик, 2015] HDRip, dvo

Марик

1504 | 51

1.37 ГБ

В этой теме нет новых непрочитанных сообщений. Адмирал / Michiel de Ruyter (Роэль Рейн) [Боевик, биография, история, 2015] HDRip, dvo

Dracon

124 | 5

1.46 ГБ

В этой теме нет новых непрочитанных сообщений. Адмирал / Michiel de Ruyter (Роэль Рейн) [Боевик, биография, история, 2015] HDRip, dvo

Dracon

296 | 24

2.05 ГБ

В этой теме нет новых непрочитанных сообщений. Железный кулак 2 / The Man with the Iron Fists 2 (Роэль Рейн) [Боевик, 2015] HDRip, Dub [Лицензия]

Dracon

4 | 0

1.37 ГБ

В этой теме нет новых непрочитанных сообщений. Железный кулак 2 / The Man with the Iron Fists 2 (Роэль Рейн) [Боевик, 2015] ВDRip 1080р, dvo

Марик

340 | 40

6.12 ГБ

В этой теме нет новых непрочитанных сообщений. Адмирал / Michiel de Ruyter (Роэль Рейн) [Боевик, биография, история, 2015] BDRip 1080p, dvo

Dracon

57 | 15

9.91 ГБ

В этой теме нет новых непрочитанных сообщений. Адмирал / Michiel de Ruyter (Роэль Рейн) [Боевик, биография, история, 2015] BDRip 720p, dvo

Dracon

158 | 32

5.32 ГБ


Начать новую тему Ответить на тему  [ 1 сообщение ] 




Для Мосгорсуда, Роскомнадзора и рекламодателей:: mosgorsud-torrent[собачка]yandex.ru