Торрент файл
скачать торрент магнет ссылка Добавлен: 25 май 2011, 14:16
Размер: 2.18 ГБ
Сидеров: 10
Личеров: 5
Автор

СообщениеДобавлено: 25 май 2011, 14:16 

Не в сети
Супермодератор
Аватара пользователя
Дата регистрации:
22 май 2010, 11:03
Возраст: 31
Спасибо: 7625 / 13
Сообщения: 49925
Скотт Пилигрим против всех / Scott Pilgrim vs. the World


Слоган: «Зацепи девчонку. Победи ее семерых злых бывших. Надери любви зад.»

Перевод: Профессиональный (полное дублирование) Лицензия + Оригинальная дорожка
Субтитры: Pусские (форсированные+полные), английские (ТИП softsub (SRT))
Формат: HDRip-AVC [Исх. Blu-ray 1080p], MKV, H.264, AC3

Страна: США, Канада, Великобритания

Режиссер: Эдгар Райт
Жанр: Фэнтези, Боевик, Мелодрама, Комедия, Музыка
Продолжительность: 1:52:00
Год выпуска: 2010

В ролях: Майкл Сера, Мэри Элизабет Уинстэд, Киран Калкин, Анна Кендрик, Крис Эванс, Джонни Симмонс, Эллен Вонг, Брэндон Рут, Джейсон Шварцман, Элисон Пилл

Описание: Скотт Пилигрим нашел девушку своей мечты. Но на его пути стоит более сложная задача: чтобы встречаться с ней, Скотту придется победить ее семерых бывших и очень злых парней.







Видео: 1088*592(16:9), MPEG4/ISO/AVC, High@L4.1, х264, 23,976 кадр/сек, 1 960 Кбит/сек, 0.127 Bits/(Pixel*Frame)
Аудио#1: 48,0 КГц, AC3 CBR, 6 канала(ов), FrontL,C,R,Side: L,R, LFE), 384 Кбит/сек |Дубляж Blu-ray DUB|
Аудио#2: 48,0 КГц, AC3 CBR, 6 канала(ов), FrontL,C,R,Side: L,R, LFE), 384 Кбит/сек |Оригинал ENG|

Доп. информация: Рип c Blu-ray 1080p

D:\Films\Skott.Piligrim.protiv.vseh.2010.Dub.BDRip.x264.mkv
General
Complete name : D:\Films\Skott.Piligrim.protiv.vseh.2010.Dub.BDRip.x264.mkv
Format : Matroska
File size : 2.18 GiB
Duration : 1h 52mn
Overall bit rate : 2 783 Kbps
Movie name : Скотт Пилигрим против всех (2010) Release by Vaippp
Encoded date : UTC 2011-01-26 15:20:46
Writing application : mkvmerge v4.4.0 ('Die Wiederkehr') сборка от Oct 31 2010 21:52:48
Writing library : libebml v1.0.0 + libmatroska v1.0.0
Video #1
ID : 1
Format : AVC
Format/Info : Advanced Video Codec
Format profile : High@L3.1
Format settings, CABAC : Yes
Format settings, ReFrames : 7 frames
Muxing mode : Container profile=Unknown@3.1
Codec ID : V_MPEG4/ISO/AVC
Duration : 1h 52mn
Bit rate : 1 960 Kbps
Nominal bit rate : 2 013 Kbps
Width : 1 088 pixels
Height : 592 pixels
Display aspect ratio : 16:9
Frame rate : 23.976 fps
Resolution : 24 bits
Colorimetry : 4:2:0
Scan type : Progressive
Bits/(Pixel*Frame) : 0.127
Stream size : 1.54 GiB (70%)
Title : BDRip by Vaippp
Writing library : x264 core 112 r1867 22bfd31
Encoding settings : cabac=1 / ref=7 / deblock=1:-2:-1 / analyse=0x3:0x113 / me=umh / subme=9 / psy=1 / psy_rd=1.00:0.10 / mixed_ref=1 / me_range=32 / chroma_me=1 / trellis=1 / 8x8dct=1 / cqm=0 / deadzone=21,11 / fast_pskip=0 / chroma_qp_offset=-3 / threads=4 / sliced_threads=0 / nr=0 / decimate=1 / interlaced=0 / constrained_intra=0 / bframes=6 / b_pyramid=2 / b_adapt=2 / b_bias=0 / direct=3 / weightb=1 / open_gop=0 / weightp=2 / keyint=250 / keyint_min=23 / scenecut=40 / intra_refresh=0 / rc_lookahead=60 / rc=2pass / mbtree=1 / bitrate=2013 / ratetol=1.0 / qcomp=0.70 / qpmin=10 / qpmax=51 / qpstep=4 / cplxblur=20.0 / qblur=0.5 / ip_ratio=1.40 / aq=1:1.00
Audio #2
ID : 2
Format : AC-3
Format/Info : Audio Coding 3
Codec ID : A_AC3
Duration : 1h 52mn
Bit rate mode : Constant
Bit rate : 384 Kbps
Channel(s) : 6 channels
Channel positions : Front: L C R, Surround: L R, LFE
Sampling rate : 48.0 KHz
Stream size : 309 MiB (14%)
Title : Дубляж Blu-ray CEE
Language : Russian
Audio #3
ID : 3
Format : AC-3
Format/Info : Audio Coding 3
Codec ID : A_AC3
Duration : 1h 52mn
Bit rate mode : Constant
Bit rate : 384 Kbps
Channel(s) : 6 channels
Channel positions : Front: L C R, Surround: L R, LFE
Sampling rate : 48.0 KHz
Stream size : 309 MiB (14%)
Title : Оригинал
Text #4
ID : 4
Format : UTF-8
Codec ID : S_TEXT/UTF8
Codec ID/Info : UTF-8 Plain Text
Title : надписи
Language : Russian
Text #5
ID : 5
Format : UTF-8
Codec ID : S_TEXT/UTF8
Codec ID/Info : UTF-8 Plain Text
Language : Russian
Text #6
ID : 6
Format : UTF-8
Codec ID : S_TEXT/UTF8
Codec ID/Info : UTF-8 Plain Text












реклама партнёра


Вернуться к началу
 Профиль Отправить личное сообщение  
 
   Похожие торренты   Автор   Торрент   Размер 
В этой теме нет новых непрочитанных сообщений. Обыкновенный мир / Ordinary World [драма, комедия, музыка, 2016] HDRip, Mvo

salma3

27 | 13

699.69 МБ

В этой теме нет новых непрочитанных сообщений. Обыкновенный мир / Ordinary World [драма, комедия, музыка, 2016] HDRip, Mvo

salma3

327 | 66

1.37 ГБ

В этой теме нет новых непрочитанных сообщений. Пэн: Путешествие в Нетландию / Pan (Джо Райт) [фэнтези, семейный, приключения, 2015] HDRip, Dub [Лицензия]

Dracon

158 | 16

1.46 ГБ

В этой теме нет новых непрочитанных сообщений. Пилигрим: Пауло Коэльо / Nao Pare na Pista: A Melhor Historia de Paulo Coelho (Даниэл Аугусту) [Драма, биография, музыка, 2014] WEB-DLRip, Dub [iTunes]

Dracon

124 | 5

1.46 ГБ

В этой теме нет новых непрочитанных сообщений. Призрак рая / Phantom of the Paradise [Фэнтези, триллер, драма, комедия, музыка, 1974] HDRip, Dvo

salma3

33 | 8

744.71 МБ

В этой теме нет новых непрочитанных сообщений. Вне карты / Off the Map (Кэмпбелл Скотт / Campbell Scott) [2003г., драма, HDTVRip 720p] MVO

Alfredovich

23 | 5

1.8 ГБ

В этой теме нет новых непрочитанных сообщений. Пэн: Путешествие в Нетландию / Pan (Джо Райт) [2015, Фэнтези, комедия, приключения, семейный , BD-Remux 1080p] [DD5.1] [Dub Rus , Ukr , Eng]+[Sub Rus , Ukr , Eng]

Враг Нароода

10 | 1

20.01 ГБ


Начать новую тему Ответить на тему  [ 1 сообщение ] 




Для Мосгорсуда, Роскомнадзора и рекламодателей:: mosgorsud-torrent[собачка]yandex.ru