Торрент файл
скачать торрент магнет ссылка Добавлен: 25 май 2011, 14:16
Размер: 2.57 ГБ
Сидеров: 97
Личеров: 7
Автор

СообщениеДобавлено: 25 май 2011, 14:16 

Не в сети
Супермодератор
Аватара пользователя
Дата регистрации:
22 май 2010, 11:03
Возраст: 31
Спасибо: 7508 / 13
Сообщения: 49940
Остров / The Island



Перевод: Профессиональный (полное дублирование)
Субтитры: Отсутствуют
Формат: HDRip, MKV, H.264, AC3

Страна: США

Режиссер: Майкл Бэй
Жанр: Фантастика, Боевик, Триллер
Продолжительность: 02:15:59
Год выпуска: 2005

В ролях: Юэн МакГрегор, Скарлетт Йоханссон, Джимон Хонсу, Шон Бин, Стив Бушеми, Майкл Кларк Дункан, Этан Филлипс, Брайан Степанек, Ноа Тишби, Сиобэн Флинн

Описание: Линкольн Шесть-Эхо — житель на вид утопического, но охраняемого поселения середины XXI века. Как и все обитатели этого тщательно контролируемого пространства, Линкольн надеется оказаться среди тех, кого отправят на «Остров» — якобы последнее незагрязненное место на планете. Но очень скоро Линкольн обнаруживает, что абсолютно всё, что касается его существования — ложь.
И он, и все остальные жители поселения — не кто иные, как человеческие клоны, чье единственное предназначение — обеспечивать своих людей-двойников «запасными частями». Понимая, что рано или поздно наступит и его черед, Линкольн вместе с подругой по несчастью, красавицей Джордан Два-Дельта решаются на отчаянный побег.
Неуклонно преследуемые властями зловещей организации, которая прежде давала им приют, Линкольн и Джордан спасаются бегством ради сохранения собственных жизней, чтобы в буквальном смысле встретиться со своими создателями…








Видео: 1024*432(2,35:1), MPEG4/ISO/AVC, High@L3.1, х264, 23,976 кадр/сек, 2 252 Кбит/сек, 0.207 Bits/(Pixel*Frame)
Аудио: 48,0 КГц, AC3 CBR, 6 канала(ов), FrontL,C,R,Surround: L,R, LFE), 448 Кбит/сек

Релиз группы:

Доп. информация: Рип с Blu-Ray

D:\Films\Ostrov.2005.x264.BDRip.(AVC).NovaLan.mkv
General
Complete name : D:\Films\Ostrov.2005.x264.BDRip.(AVC).NovaLan.mkv
Format : Matroska
File size : 2.57 GiB
Duration : 2h 15mn
Overall bit rate : 2 702 Kbps
Encoded date : UTC 2011-02-11 15:02:30
Writing application : mkvmerge v4.0.0 ('The Stars were mine') сборка от Jun6 2010 16:18:42
Writing library : libebml v1.0.0 + libmatroska v1.0.0
Video #1
ID : 1
Format : AVC
Format/Info : Advanced Video Codec
Format profile : High@L3.1
Format settings, CABAC : Yes
Format settings, ReFrames : 4 frames
Muxing mode : Container profile=Unknown@3.1
Codec ID : V_MPEG4/ISO/AVC
Duration : 2h 15mn
Bit rate : 2 200 Kbps
Nominal bit rate : 2 252 Kbps
Width : 1 024 pixels
Height : 432 pixels
Display aspect ratio : 2.35:1
Frame rate mode : Variable
Frame rate : 23.976 fps
Resolution : 24 bits
Colorimetry : 4:2:0
Scan type : Progressive
Bits/(Pixel*Frame) : 0.207
Stream size : 2.09 GiB (81%)
Writing library : x264 core 112
Encoding settings : cabac=1 / ref=3 / deblock=1:0:0 / analyse=0x3:0x113 / me=hex / subme=7 / psy=1 / psy_rd=1.00:0.00 / mixed_ref=1 / me_range=16 / chroma_me=1 / trellis=1 / 8x8dct=1 / cqm=0 / deadzone=21,11 / fast_pskip=1 / chroma_qp_offset=-2 / threads=3 / sliced_threads=0 / nr=0 / decimate=1 / interlaced=0 / constrained_intra=0 / bframes=3 / b_pyramid=2 / b_adapt=1 / b_bias=0 / direct=1 / weightb=1 / open_gop=0 / weightp=2 / keyint=240 / keyint_min=23 / scenecut=40 / intra_refresh=0 / rc_lookahead=40 / rc=2pass / mbtree=1 / bitrate=2252 / ratetol=1.0 / qcomp=0.60 / qpmin=3 / qpmax=51 / qpstep=4 / cplxblur=20.0 / qblur=0.5 / ip_ratio=1.40 / aq=1:1.00
Audio #2
ID : 2
Format : AC-3
Format/Info : Audio Coding 3
Codec ID : A_AC3
Duration : 2h 15mn
Bit rate mode : Constant
Bit rate : 448 Kbps
Channel(s) : 6 channels
Channel positions : Front: L C R, Surround: L R, LFE
Sampling rate : 48.0 KHz
Stream size : 436 MiB (17%)



______________________________








Мои релизы:




реклама партнёра


Вернуться к началу
 Профиль Отправить личное сообщение  
 
   Похожие торренты   Автор   Торрент   Размер 
В этой теме нет новых непрочитанных сообщений. Остров доктора Моро / The Island of Dr. Moreau [ужасы, фантастика, боевик, триллер, 1996] Blu-Ray, 2Avo+Sub

salma3

7 | 5

27.64 ГБ

В этой теме нет новых непрочитанных сообщений. Остров доктора Моро / The Island of Dr. Moreau [ужасы, фантастика, боевик, триллер, 1996] BDRemux, Mvo+2Avo+Sub

salma3

5 | 5

25.41 ГБ

В этой теме нет новых непрочитанных сообщений. Остров динозавров / Dinosaur Island (Матт Друммонд) [Детский, фантастика, приключения, семейный, 2014] HDRip, avo

Dracon

1071 | 48

1.37 ГБ

В этой теме нет новых непрочитанных сообщений. Нападение на Остров Дьявола / Assault on Devil's Island [боевик, триллер, приключения, 1997] DVDRip, Mvo

salma3

20 | 5

1.37 ГБ

В этой теме нет новых непрочитанных сообщений. Остров огня / Island of fire [Боевик, драма, криминал, 1990] BDRip 1080p, Mvo+Avo+Sub

salma3

41 | 7

6.35 ГБ

В этой теме нет новых непрочитанных сообщений. Остров динозавров / Dinosaur Island (Матт Друммонд) [Детский, фантастика, приключения, семейный, 2014] BDRemux 1080p, avo

Dracon

0 | 0

16.25 ГБ

В этой теме нет новых непрочитанных сообщений. Миниатюрный остров / La isla minima (Альберто Родригес) [боевик, криминал, триллер, 2014] HDRip, dvo

Dracon

14 | 3

1.46 ГБ


Начать новую тему Ответить на тему  [ 1 сообщение ] 




Для Мосгорсуда, Роскомнадзора и рекламодателей:: mosgorsud-torrent[собачка]yandex.ru