Торрент файл
скачать торрент магнет ссылка Добавлен: 25 май 2011, 14:15
Размер: 1.92 ГБ
Сидеров: 14
Личеров: 5
Автор

СообщениеДобавлено: 25 май 2011, 14:15 

Не в сети
Супермодератор
Аватара пользователя
Дата регистрации:
22 май 2010, 11:03
Возраст: 31
Спасибо: 7524 / 13
Сообщения: 49940
Скайлайн / Skyline



Перевод: Професиональный (полное дублирование) + Оригинал
Субтитры: Отсутствуют
Формат: HDRip, MKV, H.264, AC3

Страна: США

Режиссеры: Колин Штраус, Грег Штраус
Слоган: «Не смотри вверх»
Жанр: Фантастика, Боевик, Триллер
Продолжительность: 01:32:28
Год выпуска: 2010

В ролях: Эрик Бальфур, Скотти Томпсон, Дэвид Зайас, Дональд Фэйсон, Бриттани Дэниэл, Кристал Рид, Нил Хопкинс, Дж. Пол Бомер, Таня Ньюболд, Пэм Левин

Описание: После вечеринки компания друзей просыпается от того, что в окно ударяет яркий свет. Они видят, как людей на улице затягивает в столп света, и они поднимаются куда-то вверх. Вскоре после этого на планете начинается зачистка оставшихся людей. Выжившим предстоит бороться за жизнь с инопланетными тварями







Видео: 1024*432(2,35:1), MPEG4/ISO/AVC , High@L3.1, х264, 23,976 кадр/сек, 1854 Кбит/сек, 0.175 Bits/(Pixel*Frame)
Аудио#1: |Русский|48,0 КГц, AC3 CBR, 6 канала(ов), FrontL,C,R,Surround: L,R, LFE), 448 Кбит/сек|Дублированный|
Аудио#2: |Английский|48,0 КГц, AC3 CBR, 6 канала(ов), FrontL,C,R,Surround: L,R, LFE), 448 Кбит/сек|Оригинал|

Релиз группы:

Рип с Лицензионного Blu-Ray

D:\Films\Skajlajn.2010.x264.BDRip.(AVC).NovaLan.mkv
General
Complete name : D:\Films\Skajlajn.2010.x264.BDRip.(AVC).NovaLan.mkv
Format : Matroska
File size : 1.92 GiB
Duration : 1h 37mn
Overall bit rate : 2 806 Kbps
Encoded date : UTC 2011-02-18 08:45:36
Writing application : mkvmerge v4.0.0 ('The Stars were mine') сборка от Jun6 2010 16:18:42
Writing library : libebml v1.0.0 + libmatroska v1.0.0
Video #1
ID : 1
Format : AVC
Format/Info : Advanced Video Codec
Format profile : High@L3.1
Format settings, CABAC : Yes
Format settings, ReFrames : 4 frames
Muxing mode : Container profile=Unknown@3.1
Codec ID : V_MPEG4/ISO/AVC
Duration : 1h 37mn
Bit rate : 1 854 Kbps
Nominal bit rate : 2 018 Kbps
Width : 1 024 pixels
Height : 432 pixels
Display aspect ratio : 2.35:1
Frame rate mode : Variable
Frame rate : 23.976 fps
Resolution : 24 bits
Colorimetry : 4:2:0
Scan type : Progressive
Bits/(Pixel*Frame) : 0.175
Stream size : 1.27 GiB (66%)
Writing library : x264 core 112
Encoding settings : cabac=1 / ref=3 / deblock=1:0:0 / analyse=0x3:0x113 / me=hex / subme=7 / psy=1 / psy_rd=1.00:0.00 / mixed_ref=1 / me_range=16 / chroma_me=1 / trellis=1 / 8x8dct=1 / cqm=0 / deadzone=21,11 / fast_pskip=1 / chroma_qp_offset=-2 / threads=3 / sliced_threads=0 / nr=0 / decimate=1 / interlaced=0 / constrained_intra=0 / bframes=3 / b_pyramid=2 / b_adapt=1 / b_bias=0 / direct=1 / weightb=1 / open_gop=0 / weightp=2 / keyint=240 / keyint_min=23 / scenecut=40 / intra_refresh=0 / rc_lookahead=40 / rc=2pass / mbtree=1 / bitrate=2018 / ratetol=1.0 / qcomp=0.60 / qpmin=3 / qpmax=51 / qpstep=4 / cplxblur=20.0 / qblur=0.5 / ip_ratio=1.40 / aq=1:1.00
Audio #2
ID : 2
Format : AC-3
Format/Info : Audio Coding 3
Codec ID : A_AC3
Duration : 1h 37mn
Bit rate mode : Constant
Bit rate : 448 Kbps
Channel(s) : 6 channels
Channel positions : Front: L C R, Surround: L R, LFE
Sampling rate : 48.0 KHz
Stream size : 313 MiB (16%)
Audio #3
ID : 3
Format : AC-3
Format/Info : Audio Coding 3
Codec ID : A_AC3
Duration : 1h 37mn
Bit rate mode : Constant
Bit rate : 448 Kbps
Channel(s) : 6 channels
Channel positions : Front: L C R, Surround: L R, LFE
Sampling rate : 48.0 KHz
Stream size : 313 MiB (16%)



______________________________











реклама партнёра


Вернуться к началу
 Профиль Отправить личное сообщение  
 
   Похожие торренты   Автор   Торрент   Размер 
В этой теме нет новых непрочитанных сообщений. Последние девушки / The Final Girls (Тодд Штраус-Шульсон) [Ужасы, комедия, 2015] HDRip, Mvo [iTunes]

Dracon

2611 | 45

1.45 ГБ

В этой теме нет новых непрочитанных сообщений. Мир Юрского периода / Jurassic World (Колин Треворроу) [фантастика, боевик, триллер, приключения, 2015] HDRip, Dub [iTunes]

Dracon

5071 | 338

1.42 ГБ

В этой теме нет новых непрочитанных сообщений. Последние девушки / The Final Girls (Тодд Штраус-Шульсон) [2015, ужасы, комедия, BDRip-AVC | Лицензия] mvo

Dracon

162 | 8

743.63 МБ

В этой теме нет новых непрочитанных сообщений. Последние девушки / The Final Girls (Тодд Штраус-Шульсон) [2015, ужасы, комедия, BDRip-AVC | Лицензия]

Dracon

148 | 6

2.18 ГБ

В этой теме нет новых непрочитанных сообщений. Последние девушки / The Final Girls (Тодд Штраус-Шульсон) [2015, ужасы, комедия, BDRip-AVC | Лицензия] mvo

Dracon

686 | 43

1.46 ГБ

В этой теме нет новых непрочитанных сообщений. Последние девушки / The Final Girls (Тодд Штраус-Шульсон) [Ужасы, комедия, 2015] BDRip 1080p, Mvo [iTunes]

Dracon

585 | 25

6.8 ГБ

В этой теме нет новых непрочитанных сообщений. Последние девушки / The Final Girls (Тодд Штраус-Шульсон) [Ужасы, комедия, 2015] BDRip 720p, Mvo+Sub [Лицензия]

Dracon

458 | 45

4.02 ГБ


Начать новую тему Ответить на тему  [ 1 сообщение ] 




Для Мосгорсуда, Роскомнадзора и рекламодателей:: mosgorsud-torrent[собачка]yandex.ru