Торрент файл
скачать торрент магнет ссылка Добавлен: 25 май 2011, 14:15
Размер: 2.01 ГБ
Сидеров: 23
Личеров: 4
Автор

СообщениеДобавлено: 25 май 2011, 14:15 

Не в сети
Супермодератор
Аватара пользователя
Дата регистрации:
22 май 2010, 11:03
Возраст: 31
Спасибо: 7509 / 13
Сообщения: 49940
Маска / The Mask



Перевод: Профессиональный (многоголосый, закадровый)
Субтитры: Отсутствуют
Формат: HDRip, MKV, H.264, AC3

Страна: США

Режиссер: Чак Рассел
Жанр: "Стенли Ипкис, это не тот человек, которого вы знали"
Жанр: Фэнтези, Боевик, Мелодрама, Комедия
Продолжительность: 01:41:12
Год выпуска: 1994

В ролях: Джим Кэрри, Питер Ригерт, Кэмерон Диас, Эми Ясбек, Орестес Матасена, Тим Бэгли, Ричард Джени, Питер Грин, Нэнси Фиш, Джим Доугхан, Айвори Оушн

Описание: Скромный, застенчивый служащий банка закомплексован настолько, что чувствует себя неуверенно с красивыми девушками. Волею судьбы к нему попадает волшебная маска, и Стенли Ипкис приобретает способность превращаться в неуязвимое мультяшное существо из забавных комиксов.

Он становится супергероем, готовым бороться с преступностью, как Бэтмен. Итак, днем он по-прежнему скромный и незадачливый служащий, а по ночам — супермен…


Место в Top250: 188





Видео: 1280*720(2,35:1), MPEG4/ISO/AVC , High@L4.1 , х264, 23,976 Frame rate, 2 598Bit rate, 0.118 Bits/(Pixel*Frame)
Аудио: 48,0 KHz, AC3 CBR, 6 channels, FrontL,R), 384 Kbps

Релиз группы:

Доп. информация: Рип с Blu-Ray Remux 1080
Оскар, 1995 год
Номинации: Лучшие визуальные эффекты


Золотой глобус, 1995 год
Номинации: Лучшая мужская роль (комедия или мюзикл) (Джим Керри)


Премия канала «MTV», 1995 год
Номинации: Лучший танец (Джим Керри, Кэмерон Диаз)
Лучшая комедийная роль (Джим Керри)
Прорыв года (Кэмерон Диаз)
Самая желанная женщина (Кэмерон Диаз)


Британская академия, 1995 год
Номинации: Лучшие визуальные эффекты
Лучший грим/прически
Лучшая работа художника-постановщика


*В США:
$119 938 730 - 34.1%

*Чистая выручка киностудии:
$60 000 000

*В других странах:
$231 644 677 - 65.9%

*Общие сборы:
$351 583 407

*Бюджет:
$23 000 000

*Маркетинг:
--

*Дебют на большом экране Кэмерон Диас
*Приз за спецэффекты (Кен Рэлстон, Грег Кэнном - Ken Ralston, Greg Cannom) на МКФ в Ситжесе

D:\Films\The_Mask.mkv
General
Complete name : D:\Films\The_Mask.mkv
Format : Matroska
File size : 2.01 GiB
Duration : 1h 41mn
Overall bit rate : 2 847 Kbps
Movie name : Rip by Romeo [NOLIMITS-TEAM.RU]
Encoded date : UTC 2010-09-19 19:42:54
Writing application : mkvmerge v3.0.0 ('Hang up your Hang-Ups') built on Dec 12 2009 15:20:35
Writing library : libebml v0.7.9 + libmatroska v0.8.1
Video #1
ID : 1
Format : AVC
Format/Info : Advanced Video Codec
Format profile : High@L4.1
Format settings, CABAC : Yes
Format settings, ReFrames : 3 frames
Muxing mode : Container profile=Unknown@4.1
Codec ID : V_MPEG4/ISO/AVC
Duration : 1h 41mn
Bit rate : 2 598 Kbps
Nominal bit rate : 2 688 Kbps
Width : 1 280 pixels
Height : 720 pixels
Display aspect ratio : 16:9
Frame rate : 23.976 fps
Resolution : 24 bits
Colorimetry : 4:2:0
Scan type : Progressive
Bits/(Pixel*Frame) : 0.118
Stream size : 1.84 GiB (91%)
Title : Маска.[nolimits-team.ru]
Writing library : x264 core 104 r1713 c276662
Encoding settings : cabac=1 / ref=1 / deblock=1:0:0 / analyse=0x3:0x3 / me=dia / subme=1 / psy=1 / psy_rd=0.00:0.00 / mixed_ref=0 / me_range=16 / chroma_me=1 / trellis=0 / 8x8dct=1 / cqm=0 / deadzone=21,11 / fast_pskip=1 / chroma_qp_offset=0 / threads=6 / sliced_threads=0 / slices=4 / nr=0 / decimate=1 / interlaced=0 / constrained_intra=0 / bframes=3 / b_pyramid=1 / b_adapt=1 / b_bias=0 / direct=1 / weightb=1 / open_gop=0 / weightp=0 / keyint=24 / keyint_min=1 / scenecut=40 / intra_refresh=0 / rc_lookahead=0 / rc=abr / mbtree=0 / bitrate=2688 / ratetol=1.0 / qcomp=0.60 / qpmin=0 / qpmax=51 / qpstep=4 / vbv_maxrate=17500 / vbv_bufsize=14500 / ip_ratio=1.10 / pb_ratio=1.10 / aq=1:1.00 / nal_hrd=vbr
Language : English
Audio #2
ID : 2
Format : AC-3
Format/Info : Audio Coding 3
Codec ID : A_AC3
Duration : 1h 41mn
Bit rate mode : Constant
Bit rate : 192 Kbps
Channel(s) : 2 channels
Channel positions : L R
Sampling rate : 48.0 KHz
Stream size : 139 MiB (7%)
Title : Профессиональный (многоголосый, закадровый) HTB+
Language : Russian


______________________________














реклама партнёра


Вернуться к началу
 Профиль Отправить личное сообщение  
 
   Похожие торренты   Автор   Торрент   Размер 
В этой теме нет новых непрочитанных сообщений. Маска Зорро / The Mask of Zorro [Боевик, мелодрама, приключения, вестерн, 1998] BDRip-AVC, Dub

salma3

31 | 2

1.46 ГБ

В этой теме нет новых непрочитанных сообщений. Маска смерти / Mask of Death [Боевик, триллер, 1996] DVDRip, Avo

salma3

69 | 28

1.4 ГБ

В этой теме нет новых непрочитанных сообщений. Чёрная маска 2: Город Масок / Black Mask 2: City of Masks [фантастика, боевик, драма, 2002] BDRip 1080p, Mvo+Sub

salma3

29 | 8

8.58 ГБ

В этой теме нет новых непрочитанных сообщений. Маска обезьяны / The Monkey's Mask [триллер, криминал, детектив, 2000] DVDRip, Mvo

salma3

0 | 4

1.25 ГБ

В этой теме нет новых непрочитанных сообщений. Трусонюх 2: Осадки в виде труселей / Извратная маска 2 (пародия, комедия, боевик, 2016) HDRip | L2

marya111

0 | 0

1.45 ГБ

В этой теме нет новых непрочитанных сообщений. Тень / The Shadow [боевик, фэнтези, приключения, 1994] HDRip, Mvo

salma3

0 | 2

1.46 ГБ

В этой теме нет новых непрочитанных сообщений. Охота За Сокровищем / Hua qi Shao Lin [фэнтези, боевик, мелодрама, 1994] DVDRip, Avo

salma3

10 | 3

1.37 ГБ


Начать новую тему Ответить на тему  [ 1 сообщение ] 




Для Мосгорсуда, Роскомнадзора и рекламодателей:: mosgorsud-torrent[собачка]yandex.ru