Торрент файл
скачать торрент магнет ссылка Добавлен: 25 май 2011, 14:14
Размер: 2.5 ГБ
Сидеров: 3
Личеров: 2
Автор

СообщениеДобавлено: 25 май 2011, 14:14 

Не в сети
Супермодератор
Аватара пользователя
Дата регистрации:
22 май 2010, 11:03
Возраст: 32
Спасибо: 7690 / 13
Сообщения: 49871
Потустороннее / Hereafter



Перевод: Любительский (одноголосый), cубтитры: отсутствуют
Формат: HDRip-AVC, MKV, H.264, AC3
Страна: США
Режиссер: Клинт Иствуд
Жанр: фэнтези, драма
Продолжительность: 02:09:02
Год выпуска: 2010

В ролях: Мэтт Дэймон, Сесиль де Франс, Тьерри Новик, Синди Майо Дэвис, Лиза Гриффитс, Джессика Гриффитс, Фергюсон Рейд, Дерек Сакакура, Джей Мор, Ричард Кайнд

Описание: Три параллельные и вскоре пересекающиеся истории о людях, познавших смерть. Французская журналистка, пережившая цунами в 2004 году, и наркоманка, потерявшая в автокатастрофе одного из десятилетних сыновей-близнецов, обращаются к умеющему разговаривать с мертвыми человеку в поисках ответов и утешения.




Видео: 1 280 x 536 (2.349) 23.976 fps, AVC, H.264, High@L4.0~2 382 kbps avg, 0.145 bit/pixel
Аудио: 48 kHz, AC-3,L C R,L R, LFE , 6 ch, ~384kbps avg

Релиз от:
[Чистый звук]
General
Unique ID: 222105022546845723726159805327493965378 (0xA717DF123F3BDE5DBB4E4CC872F62642)
Complete name: E:\РЕЛИЗЫ\Все релизы 10\potustoronnee_[tfile.ru].mkv
Format: Matroska
File size: 2.50 GiB
Duration: 2h 9mn
Overall bit rate: 2 776 Kbps
Movie name: Rip by herrower
Encoded date: UTC 2011-02-27 19:19:34
Writing application: mkvmerge v3.0.0 ('Hang up your Hang-Ups') built on Dec 12 2009 15:20:35
Writing library: libebml v0.7.9 + libmatroska v0.8.1

Video
ID: 2
Format: AVC
Format/Info: Advanced Video Codec
Format profile: High@L4.0
Format settings, CABAC: Yes
Format settings, ReFrames: 3 frames
Format settings, GOP: M=4, N=16
Codec ID: V_MPEG4/ISO/AVC
Duration: 2h 9mn
Bit rate mode: Variable
Bit rate: 2 382 Kbps
Maximum bit rate: 17.5 Mbps
Width: 1 280 pixels
Height: 536 pixels
Display aspect ratio: 2.35:1
Original display aspect ratio: 2.35:1
Frame rate: 23.976 fps
Color space: YUV
Chroma subsampling: 4:2:0
Bit depth: 8 bits
Scan type: Progressive
Bits/(Pixel*Frame): 0.145
Stream size: 2.11 GiB (84%)
Writing library: x264 core 112 r1867 22bfd31
Encoding settings: cabac=1 / ref=1 / deblock=1:0:0 / analyse=0x3:0x3 / me=dia / subme=1 / psy=1 / psy_rd=0.00:0.00 / mixed_ref=0 / me_range=16 / chroma_me=1 / trellis=0 / 8x8dct=1 / cqm=0 / deadzone=21,11 / fast_pskip=1 / chroma_qp_offset=0 / threads=3 / sliced_threads=0 / nr=0 / decimate=1 / interlaced=0 / constrained_intra=0 / bframes=3 / b_pyramid=1 / b_adapt=1 / b_bias=0 / direct=1 / weightb=1 / open_gop=0 / weightp=1 / keyint=24 / keyint_min=1 / scenecut=40 / intra_refresh=0 / rc_lookahead=0 / rc=abr / mbtree=0 / bitrate=2382 / ratetol=1.0 / qcomp=0.60 / qpmin=0 / qpmax=51 / qpstep=4 / vbv_maxrate=17500 / vbv_bufsize=14500 / nal_hrd=vbr / ip_ratio=1.10 / pb_ratio=1.10 / aq=1:1.00

Audio
ID: 1
Format: AC-3
Format/Info: Audio Coding 3
Mode extension: CM (complete main)
Codec ID: A_AC3
Duration: 2h 9mn
Bit rate mode: Constant
Bit rate: 384 Kbps
Channel(s): 6 channels
Channel positions: Front: L C R, Side: L R, LFE
Sampling rate: 48.0 KHz
Bit depth: 16 bits
Compression mode: Lossy
Stream size: 354 MiB (14%)
Title: AC3 5.1 @ 384 kbps -L1
Language: Russian
















реклама партнёра


Вернуться к началу
 Профиль Отправить личное сообщение  
 
   Похожие торренты   Автор   Торрент   Размер 
В этой теме нет новых непрочитанных сообщений. Снайпер / American Sniper (Клинт Иствуд) [боевик, драма, военный, биография, 2014] HDRip, Dub [iTunes]

Dracon

5 | 1

1.37 ГБ

В этой теме нет новых непрочитанных сообщений. Снайпер / American Sniper (Клинт Иствуд) [боевик, драма, военный, биография, 2014] DVDScr, Mvo

Dracon

21 | 3

2.05 ГБ

В этой теме нет новых непрочитанных сообщений. Снайпер / American Sniper (Клинт Иствуд) [боевик, драма, военный, биография, 2014] DVDScr, Mvo

Dracon

57 | 3

1.46 ГБ

В этой теме нет новых непрочитанных сообщений. Снайпер / American Sniper (Клинт Иствуд) [боевик, драма, военный, биография, 2014] DVDScr, dvo

Dracon

2002 | 73

2.05 ГБ

В этой теме нет новых непрочитанных сообщений. Снайпер / American Sniper (Клинт Иствуд) [боевик, драма, военный, биография, 2014] DVDScr, dvo

Dracon

3325 | 141

1.46 ГБ

В этой теме нет новых непрочитанных сообщений. Парни из Джерси / Jersey Boys (Клинт Иствуд) [драма, биография, музыка, 2014] BDRip-AVC, Mvo

Dracon

66 | 7

2.28 ГБ

В этой теме нет новых непрочитанных сообщений. Парни из Джерси / Jersey Boys (Клинт Иствуд) [драма, биография, музыка, 2014] BDRemux 1080p, Mvo

Dracon

33 | 34

30.4 ГБ


Начать новую тему Ответить на тему  [ 1 сообщение ] 




Для Мосгорсуда, Роскомнадзора и рекламодателей:: mosgorsud-torrent[собачка]yandex.ru