Торрент файл
скачать торрент магнет ссылка Добавлен: 25 май 2011, 14:11
Размер: 1.38 ГБ
Сидеров: 345
Личеров: 36
Автор

СообщениеДобавлено: 25 май 2011, 14:11 

Не в сети
Супермодератор
Аватара пользователя
Дата регистрации:
22 май 2010, 11:03
Возраст: 31
Спасибо: 7509 / 13
Сообщения: 49940
Время ведьм / Season of the Witch

«Не все души можно спасти»

Перевод: Профессиональный (полное дублирование), cубтитры: отсутствуют
Формат: HDRip-AVC, MKV, H.264, AC3

Страна: США
Режиссер: Доминик Сена
Жанр: Фэнтази, драма, приключения

Продолжительность: 01:34:42
Год выпуска: 2011

В ролях: Николас Кейдж, Рон Перлман, Стивен Кэмпбелл Мур, Стивен Грэм, Ульрих Томсен, Клер Фой, Роберт Шиэн, Кристофер Ли, Ребека Кеннеди, Эндрю Хефлер

Описание: XIV столетие. В Европе свирепствует чума. Виновницей смертоносной беды признают беззащитную девушку, подозревая ее в колдовстве. Умирающий кардинал просит рыцаря Бэмена доставить ведьму в далекое аббатство, где ее чары должны быть разрушены. Семеро верховых и повозка с железной клеткой, в которой заточена обвиняемая, отправляются в опасное путешествие. Скоро рыцари осознают, что их миловидная спутница, и, правда, — не человек, а само исчадие ада. Воинам предстоит жестокая битва с такими духами зла, которых они не могли себе представить даже в самых ужасных кошмарах…





Рейтинг на MPAA: PG-13

Видео: 720х400 (16:9), 23.97 fps, AVC MPEG4 High@L3.0, ~ 1 696 Kbps, 0.25 bit/pixel
Аудио: 48 kHz, AC3, L C R, L R, LFE6ch, ~384 Kbps avg

Релиз-Группа:
Рип от:TswetkOFF


General
Unique ID: 254828060752213973824868525457394462209 (0xBFB6196AE42C8151B83E685EAB616E01)
Complete name: D:\Films\vremja_vedm_[tfile.ru].mkv
Format: Matroska
File size: 1.38 GiB
Duration: 1h 34mn
Overall bit rate: 2 083 Kbps
Encoded date: UTC 2011-03-16 20:42:37
Writing application: mkvmerge v2.4.0 ('Fumbling Towards Ecstasy') built on Oct 11 2008 20:13:15
Writing library: libebml v0.7.7 + libmatroska v0.8.1

Video
ID: 1
Format: AVC
Format/Info: Advanced Video Codec
Format profile: High@L3.0
Format settings, CABAC: Yes
Format settings, ReFrames: 3 frames
Codec ID: V_MPEG4/ISO/AVC
Duration: 1h 34mn
Bit rate: 1 696 Kbps
Width: 720 pixels
Height: 400 pixels
Display aspect ratio: 16:9
Frame rate: 23.976 fps
Color space: YUV
Chroma subsampling: 4:2:0
Bit depth: 8 bits
Scan type: Progressive
Bits/(Pixel*Frame): 0.246
Stream size: 1.10 GiB (80%)
Writing library: x264 core 65 r999kMod cc51047
Encoding settings: cabac=1 / ref=3 / deblock=1:-2:-1 / analyse=0x3:0x133 / me=umh / subme=7 / psy_rd=1.0:0.0 / mixed_ref=1 / me_range=16 / chroma_me=1 / trellis=2 / 8x8dct=1 / cqm=0 / deadzone=21,11 / chroma_qp_offset=-2 / threads=2 / thread_queue=2 / nr=0 / decimate=0 / mbaff=0 / bframes=3 / b_pyramid=0 / b_adapt=1 / b_bias=0 / direct=3 / wpredb=1 / keyint=250 / keyint_min=25 / scenecut=40(pre) / rc=2pass / bitrate=1696 / ratetol=1.0 / qcomp=0.60 / qpmin=10 / qpmax=51 / qpstep=4 / cplxblur=20.0 / qblur=0.5 / ip_ratio=1.40 / pb_ratio=1.30 / aq=1:1.00

Audio
ID: 2
Format: AC-3
Format/Info: Audio Coding 3
Mode extension: CM (complete main)
Codec ID: A_AC3
Duration: 1h 34mn
Bit rate mode: Constant
Bit rate: 384 Kbps
Channel(s): 6 channels
Channel positions: Front: L C R, Side: L R, LFE
Sampling rate: 48.0 KHz
Bit depth: 16 bits
Compression mode: Lossy
Stream size: 260 MiB (18%)















реклама партнёра


Вернуться к началу
 Профиль Отправить личное сообщение  
 
   Похожие торренты   Автор   Торрент   Размер 
В этой теме нет новых непрочитанных сообщений. Последний охотник на ведьм / The Last Witch Hunter [фэнтези, боевик, приключения, 2015] HDRip, Dub [iTunes]

Dracon

235 | 5

2.05 ГБ

В этой теме нет новых непрочитанных сообщений. Последний охотник на ведьм / The Last Witch Hunter [фэнтези, боевик, приключения, 2015] HDRip, Dub [iTunes]

Dracon

1400 | 33

1.37 ГБ

В этой теме нет новых непрочитанных сообщений. Последний охотник на ведьм / The Last Witch Hunter [фэнтези, боевик, приключения, 2015] DVD5, Dub+Sub

salma3

130 | 42

4.38 ГБ

В этой теме нет новых непрочитанных сообщений. Последний охотник на ведьм / The Last Witch Hunter [фэнтези, боевик, приключения, 2015] BDRip, Avo [Гаврилов]

salma3

108 | 7

1.46 ГБ

В этой теме нет новых непрочитанных сообщений. Последний охотник на ведьм / The Last Witch Hunter [фэнтези, боевик, приключения, 2015] BDRip 1080p, Dub [iTunes]

Dracon

468 | 44

7.94 ГБ

В этой теме нет новых непрочитанных сообщений. Последний охотник на ведьм / The Last Witch Hunter [фэнтези, боевик, приключения, 2015] BDRip 720p, Dub [iTunes]

Dracon

189 | 15

5.75 ГБ

В этой теме нет новых непрочитанных сообщений. Охота на ведьм / Witch Hunt [Детектив, мистика, 1994] TVRip, Mvo

salma3

4 | 1

753.9 МБ


Начать новую тему Ответить на тему  [ 1 сообщение ] 




Для Мосгорсуда, Роскомнадзора и рекламодателей:: mosgorsud-torrent[собачка]yandex.ru