Торрент файл
скачать торрент магнет ссылка Добавлен: 25 май 2011, 14:08
Размер: 2.23 ГБ
Сидеров: 98
Личеров: 16
Автор

СообщениеДобавлено: 25 май 2011, 14:08 

Не в сети
Супермодератор
Аватара пользователя
Дата регистрации:
22 май 2010, 11:03
Возраст: 31
Спасибо: 7509 / 13
Сообщения: 49940
Время ведьм / Season of the Witch



Перевод: Профессиональный (полное дублирование), cубтитры: отсутствуют
Формат: HDRip-AVC, MKV, H.264, AC3
Страна: США
Режиссер: Доминик Сена
Жанр: фэнтези, боевик, приключения
Продолжительность: 01:34:37
Год выпуска: 2011

В ролях: Николас Кейдж, Рон Перлман, Стивен Кэмпбелл Мур, Стивен Грэм, Ульрих Томсен, Клер Фой, Роберт Шиэн, Кристофер Ли, Ребека Кеннеди, Эндрю Хефлер

Описание: XIV столетие. В Европе свирепствует чума. Виновницей смертоносной беды признают беззащитную девушку, подозревая ее в колдовстве. Умирающий кардинал просит рыцаря Бэмена доставить ведьму в далекое аббатство, где ее чары должны быть разрушены. Семеро верховых и повозка с железной клеткой, в которой заточена обвиняемая, отправляются в опасное путешествие. Скоро рыцари осознают, что их миловидная спутница, и, правда, — не человек, а само исчадие ада. Воинам предстоит жестокая битва с такими духами зла, которых они не могли себе представить даже в самых ужасных кошмарах…



Видео: 1 280x720 (1.77, 23.976 fps, AVC, High@L4.1, х264,~ 2 992 Kbps Kbps, 0.135 bit/pixel
Аудио: 48 kHz, AC3 Dolby Digital, 3/2 (L,C,R,l,r) + LFE ch, ~384 kbps

Лицензия

Релиз Группа
General
Unique ID: 233734199138750263055126488952994199824 (0xAFD791BE9E86CBD38C97663F8216F910)
Complete name: E:\РЕЛИЗЫ\Все релизы 11\vremya_vedm_[tfile.ru].mkv
Format: Matroska
File size: 2.23 GiB
Duration: 1h 34mn
Overall bit rate: 3 376 Kbps
Movie name: Rip by victordan 95
Encoded date: UTC 2011-03-16 04:50:33
Writing application: mkvmerge v3.2.0 ('Beginnings') built on Feb 12 2010 16:46:17
Writing library: libebml v0.7.9 + libmatroska v0.8.1

Video
ID: 1
Format: AVC
Format/Info: Advanced Video Codec
Format profile: High@L4.1
Format settings, CABAC: Yes
Format settings, ReFrames: 5 frames
Format settings, GOP: M=4, N=16
Codec ID: V_MPEG4/ISO/AVC
Duration: 1h 34mn
Bit rate mode: Variable
Bit rate: 2 992 Kbps
Maximum bit rate: 17.5 Mbps
Width: 1 280 pixels
Height: 720 pixels
Display aspect ratio: 16:9
Frame rate: 23.976 fps
Color space: YUV
Chroma subsampling: 4:2:0
Bit depth: 8 bits
Scan type: Progressive
Bits/(Pixel*Frame): 0.135
Stream size: 1.93 GiB (87%)
Writing library: x264 core 112 r1867 22bfd31
Encoding settings: cabac=1 / ref=6 / deblock=1:0:0 / analyse=0x3:0x113 / me=umh / subme=8 / psy=1 / psy_rd=1.00:0.00 / mixed_ref=1 / me_range=16 / chroma_me=1 / trellis=1 / 8x8dct=1 / cqm=0 / deadzone=21,11 / fast_pskip=1 / chroma_qp_offset=-2 / threads=3 / sliced_threads=0 / slices=4 / nr=0 / decimate=1 / interlaced=0 / constrained_intra=0 / bframes=3 / b_pyramid=1 / b_adapt=1 / b_bias=0 / direct=3 / weightb=1 / open_gop=0 / weightp=1 / keyint=24 / keyint_min=1 / scenecut=40 / intra_refresh=0 / rc_lookahead=24 / rc=2pass / mbtree=1 / bitrate=2992 / ratetol=1.0 / qcomp=0.60 / qpmin=0 / qpmax=51 / qpstep=4 / cplxblur=20.0 / qblur=0.5 / vbv_maxrate=17500 / vbv_bufsize=14500 / nal_hrd=vbr / ip_ratio=1.10 / aq=1:1.00
Language: English

Audio
ID: 2
Format: AC-3
Format/Info: Audio Coding 3
Mode extension: CM (complete main)
Codec ID: A_AC3
Duration: 1h 34mn
Bit rate mode: Constant
Bit rate: 384 Kbps
Channel(s): 6 channels
Channel positions: Front: L C R, Side: L R, LFE
Sampling rate: 48.0 KHz
Bit depth: 16 bits
Compression mode: Lossy
Stream size: 260 MiB (11%)
Language: Russian
















реклама партнёра


Вернуться к началу
 Профиль Отправить личное сообщение  
 
   Похожие торренты   Автор   Торрент   Размер 
В этой теме нет новых непрочитанных сообщений. Последний охотник на ведьм / The Last Witch Hunter [фэнтези, боевик, приключения, 2015] HDRip, Dub [iTunes]

Dracon

1400 | 33

1.37 ГБ

В этой теме нет новых непрочитанных сообщений. Последний охотник на ведьм / The Last Witch Hunter [фэнтези, боевик, приключения, 2015] HDRip, Dub [iTunes]

Dracon

235 | 5

2.05 ГБ

В этой теме нет новых непрочитанных сообщений. Последний охотник на ведьм / The Last Witch Hunter [фэнтези, боевик, приключения, 2015] DVD5, Dub+Sub

salma3

130 | 42

4.38 ГБ

В этой теме нет новых непрочитанных сообщений. Последний охотник на ведьм / The Last Witch Hunter [фэнтези, боевик, приключения, 2015] BDRip, Avo [Гаврилов]

salma3

108 | 7

1.46 ГБ

В этой теме нет новых непрочитанных сообщений. Последний охотник на ведьм / The Last Witch Hunter [фэнтези, боевик, приключения, 2015] BDRip 720p, Dub [iTunes]

Dracon

189 | 15

5.75 ГБ

В этой теме нет новых непрочитанных сообщений. Последний охотник на ведьм / The Last Witch Hunter [фэнтези, боевик, приключения, 2015] BDRip 1080p, Dub [iTunes]

Dracon

468 | 44

7.94 ГБ

В этой теме нет новых непрочитанных сообщений. Охота на ведьм / Witch Hunt [Детектив, мистика, 1994] TVRip, Mvo

salma3

4 | 1

753.9 МБ


Начать новую тему Ответить на тему  [ 1 сообщение ] 




Для Мосгорсуда, Роскомнадзора и рекламодателей:: mosgorsud-torrent[собачка]yandex.ru