Торрент файл
скачать торрент магнет ссылка Добавлен: 25 май 2011, 14:07
Размер: 1.27 ГБ
Сидеров: 4
Личеров: 7
Автор

СообщениеДобавлено: 25 май 2011, 14:07 

Не в сети
Супермодератор
Аватара пользователя
Дата регистрации:
22 май 2010, 11:03
Возраст: 31
Спасибо: 7524 / 13
Сообщения: 49940
Возможно / Peut-etre

Перевод: Профессиональный (многоголосый, закадровый), cубтитры: отсутствуют
Формат: DVDRip, AVI, DivX, AC3
Страна: Франция
Режиссер: Седрик Клапиш
Жанр: фантастика, драма
Продолжительность: 01:49:00
Год выпуска: 1999
В ролях: Жан-Поль Бельмондо,Ромен Дюри,Жеральдин Пайя,Жюли Депардье,Эммануэль Дево,Басс Дем,Лея Дрюкер,Элен Фийер,Доминик Фрот,Мэтью Жене
Описание: Канун Нового года — всегда мистическая пора. А уж наступление нового тысячелетия должно быть отмечено поистине невероятными событиями.
Так, юный Артур запомнит этот веселый праздник встречи 2000 года на всю жизнь, ведь ему больше никогда не представится замечательная возможность перенестись во времени на 70 лет вперед и встретиться со своим собственным уже престарелым сыном.



[/field]

Видео: 704x288 (2.40:1), 25 fps, DivX 5 MPEG-4 ~1721 kbps avg, 0.244 bit/pixel
Аудио: 48 kHz, AC3 Dolby Digital, 3/2 (L,C,R,l,r) + LFE ch, ~448 kbps








Video
ID: 1
Format: MPEG-4 Visual
Format settings, BVOP: Yes
Format settings, QPel: No
Format settings, GMC: No warppoints
Format settings, Matrix: Default (H.263)
Codec ID: DX50
Codec ID/Hint: DivX 5
Duration: 1h 45mn
Bit rate: 1 239 Kbps
Width: 704 pixels
Height: 288 pixels
Display aspect ratio: 2.40:1
Frame rate: 25.000 fps
Color space: YUV
Chroma subsampling: 4:2:0
Bit depth: 8 bits
Scan type: Progressive
Compression mode: Lossy
Bits/(Pixel*Frame): 0.244
Stream size: 935 MiB (72%)
Writing library: DivX 6.1.0 (UTC 2005-12-12)

Audio
ID: 2
Format: AC-3
Format/Info: Audio Coding 3
Mode extension: CM (complete main)
Codec ID: A_AC3
Duration: 1h 45mn
Bit rate mode: Constant
Bit rate: 448 Kbps
Channel(s): 6 channels
Channel positions: Front: L C R, Side: L R, LFE
Sampling rate: 48.0 KHz
Bit depth: 16 bits
Compression mode: Lossy
Stream size: 338 MiB (26%)




реклама партнёра


Вернуться к началу
 Профиль Отправить личное сообщение  
 
   Похожие торренты   Автор   Торрент   Размер 
В этой теме нет новых непрочитанных сообщений. Китайская головоломка / Chinese puzzle (Седрик Клапиш / Cédric Klapisch) [2013г., драма, мелодрама, комедия, BDRip 720p] Dub

Alfredovich

5 | 2

4.91 ГБ

В этой теме нет новых непрочитанных сообщений. Недооформлен Китайская головоломка / Casse-tete chinois (Седрик Клапиш) [2013, драма, мелодрама, комедия, HDRip] DUB [Чистый звук] Данный торрент является блокированным, причина: недооформленный торрент

Kochesov

692 | 112

1.37 ГБ

В этой теме нет новых непрочитанных сообщений. Слишком красивые, чтобы быть честными / Trop jolies pour être honnêtes [комедия, криминал, 1972] DVDRip, Mvo

salma3

37 | 6

1.46 ГБ

В этой теме нет новых непрочитанных сообщений. Все возможно, детка! / Maybe Baby [мелодрама, комедия, 2000] DVDRip-AVC, Dub

salma3

64 | 6

1.42 ГБ

В этой теме нет новых непрочитанных сообщений. Крестовый поход / Crusade [S01] [фантастика, боевик, драма, 1999] DVDRip, Mvo

salma3

7 | 3

5.09 ГБ

В этой теме нет новых непрочитанных сообщений. Моментом позже / The Moment After [фантастика, триллер, драма, 1999] DVDRip, Mvo

salma3

177 | 13

1.37 ГБ

В этой теме нет новых непрочитанных сообщений. В следующий раз я буду стрелять в сердце / La prochaine fois je viserai le coeur (Седрик Анже) [триллер, драма, криминал, 2014] HDRip, Mvo [Лицензия]

Dracon

127 | 5

2.18 ГБ


Начать новую тему Ответить на тему  [ 1 сообщение ] 




Для Мосгорсуда, Роскомнадзора и рекламодателей:: mosgorsud-torrent[собачка]yandex.ru