Торрент файл
скачать торрент магнет ссылка Добавлен: 25 май 2011, 14:06
Размер: 2.18 ГБ
Сидеров: 155
Личеров: 8
Автор

СообщениеДобавлено: 25 май 2011, 14:06 

Не в сети
Супермодератор
Аватара пользователя
Дата регистрации:
22 май 2010, 11:03
Возраст: 31
Спасибо: 7508 / 13
Сообщения: 49940
Гарри Поттер и Дары смерти: Часть 1 / Harry Potter and the Deathly Hallows: Part 1

Перевод: Профессиональный (полное дублирование)[Лицензия]
Cубтитры: Русские, Английские
Формат: HDRip-AVC, MKV, H.264, AC3
Страна: США, Великобритания
Режиссер: Дэвид Йэтс
Жанр: фэнтези, драма, детектив, приключения
Продолжительность: 02:26:05
Год выпуска: 2010
В ролях: Дэниэл Рэдклифф, Руперт Гринт, Эмма Уотсон, Том Фелтон, Бонни Райт, Алан Рикман, Рэйф Файнс, Хелена Бонем Картер, Майкл Гэмбон, Брендан Глисон ...

Описание: Гарри Поттера ждёт самое страшное испытание в жизни — смертельная схватка с Волан-де-Мортом. Ждать помощи не от кого — Гарри одинок, как никогда… Друзья и враги Гарри предстают в совершенно неожиданном свете. Граница между Добром и Злом становится всё призрачнее…





Видео: 1136x472 (2.40:1), 23.976 fps, MPEG4 AVC (x264), High@L3.2, 1371 kbps avg, 0.107 bit/pixel
Аудио №1: русский - 48 KHz, AC3 Dolby Digital, 3/2 (L,C,R,l,r) + LFE ch,384 kb/s - [Профессиональный (полное дублирование)];
Аудио №2: английский - 48 KHz, AC3 Dolby Digital, 3/2 (L,C,R,l,r) + LFE ch,384 kb/s - [Оригинал][/field]
Формат: Matroska
Размер файла: 2,18 Гбайт
Продолжительность: 2 ч. 26 м.
Общий поток: 2141 Кбит/сек
Название фильма: Garri Potter i Dary smerti Chast 1 (2010) Release by Vaippp [OpenSharing Team]
Дата кодирования: UTC 2011-04-05 05:52:25
Программа кодирования: mkvmerge v4.6.0 ('Still Crazy After All These Years') сборка от Mar 10 2011 02:50:32
Библиотека кодирования: libebml v1.2.0 + libmatroska v1.1.0

Видео
Идентификатор: 1
Формат: AVC
Формат/Информация: Advanced Video Codec
Профиль формата: High@L3.2
Параметр CABAC формата: Да
Параметр ReFrames формата: 9 кадры
Идентификатор кодека: V_MPEG4/ISO/AVC
Продолжительность: 2 ч. 26 м.
Битрейт: 1371 Кбит/сек
Ширина: 1136 пикс.
Высота: 472 пикс.
Соотношение сторон: 2,40:1
Частота кадров: 23,976 кадр/сек
Цветовое пространство: YUV
Подвыборка цветности: 4:2:0
Битовая глубина: 8 бит
Тип развёртки: Прогрессивная
Бит/(Пиксели*Кадры): 0.107
Размер потока: 1,36 Гбайт (62%)
Заголовок: BDRip by Vaippp
Библиотека кодирования: x264 core 112 r1867 22bfd31
Настройки программы: cabac=1 / ref=9 / deblock=1:-2:-2 / analyse=0x3:0x133 / me=umh / subme=9 / psy=1 / psy_rd=1.00:0.18 / mixed_ref=1 / me_range=32 / chroma_me=1 / trellis=2 / 8x8dct=1 / cqm=0 / deadzone=21,11 / fast_pskip=0 / chroma_qp_offset=-3 / threads=4 / sliced_threads=0 / nr=0 / decimate=1 / interlaced=0 / constrained_intra=0 / bframes=8 / b_pyramid=2 / b_adapt=2 / b_bias=0 / direct=3 / weightb=1 / open_gop=0 / weightp=2 / keyint=250 / keyint_min=23 / scenecut=40 / intra_refresh=0 / rc=2pass / mbtree=0 / bitrate=1371 / ratetol=1.0 / qcomp=0.70 / qpmin=10 / qpmax=51 / qpstep=4 / cplxblur=20.0 / qblur=0.5 / ip_ratio=1.40 / pb_ratio=1.30 / aq=1:0.90 / zones=193777,210156,q=35
Язык: English

Аудио #1
Идентификатор: 2
Формат: AC-3
Формат/Информация: Audio Coding 3
Расширение режима: CM (complete main)
Идентификатор кодека: A_AC3
Продолжительность: 2 ч. 26 м.
Вид битрейта: Постоянный
Битрейт: 384 Кбит/сек
Канал(ы): 6 канала(ов)
Расположение каналов: Front: L C R, Side: L R, LFE
Частота: 48,0 КГц
Битовая глубина: 16 бит
Метод сжатия: С потерями
Размер потока: 401 Мбайт (18%)
Заголовок: DUB R5
Язык: Russian

Аудио #2
Идентификатор: 3
Формат: AC-3
Формат/Информация: Audio Coding 3
Расширение режима: CM (complete main)
Идентификатор кодека: A_AC3
Продолжительность: 2 ч. 26 м.
Вид битрейта: Постоянный
Битрейт: 384 Кбит/сек
Канал(ы): 6 канала(ов)
Расположение каналов: Front: L C R, Side: L R, LFE
Частота: 48,0 КГц
Битовая глубина: 16 бит
Метод сжатия: С потерями
Размер потока: 401 Мбайт (18%)
Заголовок: Original
Язык: English

Текст #1
Идентификатор: 4
Формат: UTF-8
Идентификатор кодека: S_TEXT/UTF8
Идентификатор кодека/Информация: UTF-8 Plain Text
Язык: Russian

Текст #2
Идентификатор: 5
Формат: UTF-8
Идентификатор кодека: S_TEXT/UTF8
Идентификатор кодека/Информация: UTF-8 Plain Text
Язык: English









реклама партнёра


Вернуться к началу
 Профиль Отправить личное сообщение  
 
   Похожие торренты   Автор   Торрент   Размер 
В этой теме нет новых непрочитанных сообщений. Поглощён Тарзан. Легенда / The Legend of Tarzan (Дэвид Йэтс) [2016, Боевик, приключения, HDRip | iTunes] Dub Данный торрент является блокированным, причина: поглощённый торрент

marya111

651 | 74

2.05 ГБ

В этой теме нет новых непрочитанных сообщений. Да / Yes (Салли Поттер / Sally Potter) [2004г., Великобритания, драма, мелодрама, DVDRip] MVO

Alfredovich

8 | 0

1.45 ГБ

В этой теме нет новых непрочитанных сообщений. Мисс Поттер / Miss Potter [драма, биография, 2006] BDRip 720p, Dub+Sub

salma3

21 | 2

3.18 ГБ

В этой теме нет новых непрочитанных сообщений. Двуличие / Trouble (Гарри Клевен / Harry Cleven)[2005г., Франция, триллер, DVDRip-AVC] MVO

Alfredovich

102 | 7

1.46 ГБ

В этой теме нет новых непрочитанных сообщений. Гарри и Уолтер едут в Нью-Йорк / Harry and Walter Go to New York [комедия, криминал, 1976] DVDRip, Mvo

salma3

215 | 43

1.47 ГБ

В этой теме нет новых непрочитанных сообщений. Призраки Гарри Пэйна: Зло не умрет никогда / The Haunting of Harry Payne [ужасы, триллер, 2014] DVDRip, dvo

Dracon

184 | 7

1.41 ГБ

В этой теме нет новых непрочитанных сообщений. Когда Гарри встретил Салли / When Harry Met Sally... [драма, мелодрама, комедия, 1989] BDRip 720p, Mvo+Avo+Sub [Лицензия]

salma3

62 | 3

5.76 ГБ


Начать новую тему Ответить на тему  [ 1 сообщение ] 




Для Мосгорсуда, Роскомнадзора и рекламодателей:: mosgorsud-torrent[собачка]yandex.ru