Оценка торрента
5 50%  50%  [ 1 ]
5 50%  50%  [ 1 ]
4 0%  0%  [ 0 ]
3 0%  0%  [ 0 ]
2 0%  0%  [ 0 ]
1 0%  0%  [ 0 ]
1 0%  0%  [ 0 ]
2 0%  0%  [ 0 ]
3 0%  0%  [ 0 ]
4 0%  0%  [ 0 ]
Всего голосов : 2
Торрент файл
скачать торрент магнет ссылка Добавлен: 25 май 2011, 14:05
Размер: 1.46 ГБ
Сидеров: 126
Личеров: 8
Статус: (lllod)
Автор

СообщениеДобавлено: 25 май 2011, 14:05 

Не в сети
Супермодератор
Аватара пользователя
Дата регистрации:
22 май 2010, 11:03
Возраст: 32
Спасибо: 7690 / 13
Сообщения: 49871
Бегущий по лезвию / Blade Runner


Страна: США
Жанр: Фантастика, триллер, драма
Год выпуска: 1982
Продолжительность: 01:57:36
Перевод: Профессиональный (полное дублирование)
Cубтитры: нет

Режиссер: Ридли Скотт / Ridley Scott

В ролях: Харрисон Форд, Рутгер Хауэр, Шон Янг, Эдвард Джеймс Олмос,М. Эммет Уолш, Дэрил Ханна, Уильям Сэндерсон, Брайон Джеймс, Джо Тёркел, Джоанна Кэссиди

Описание: Отставной детектив Рик Декард вновь восстановлен в полиции Лос-Анджелеса для поиска возглавляемой Роем Батти группы киборгов, совершившей побег из космической колонии на Землю.
В полиции считают, что киборги пытаются встретиться с Эндолом Тайреллом, руководителем корпорации, ставящей эксперименты над кибернетическим интеллектом. Рик Декард получает задание выяснить мотивы действий киборгов, а затем уничтожить их.

Рейтинг КиноПоиск.RU: 7.724
Рейтинг IMDB: 8.3/10
Рейтинг MPAA: R

Качество: BDRip
Формат: AVI
Видео кодек: XviD
Аудио кодек: AC3
Видео: 720x304 (2.37:1), 23.976 fps, XviD build 50 ~1444 kbps avg, 0.28 bit/pixel
Аудио: 48 kHz, AC3 Dolby Digital, 3/2 (L,C,R,l,r) + LFE ch, ~320.00 kbps avg


Оскар, 1983 год
Номинации (2):
Лучшие декорации
Лучшие визуальные эффекты

Золотой глобус, 1983 год
Номинации (1):
Лучший саундтрек

Британская академия, 1983 год
Победитель (3):
Лучшая работа оператора
Лучшая работа художника-постановщика
Лучшие костюмы
Номинации (5):
Лучший звук
Лучший монтаж
Лучшие визуальные эффекты
Лучший саундтрек
Лучший грим
Полное имя : D:\Фильмы\Blade Runner.avi
Формат : AVI
Формат/Информация : Audio Video Interleave
Размер файла : 1,46 Гбайт
Продолжительность : 1 ч. 57 м.
Общий поток : 1774 Кбит/сек
Программа кодирования : VirtualDubModRus 1.5.10.2 (build 2542/release)
Библиотека кодирования : VirtualDubMod build 2542/release

Видео
Идентификатор : 0
Формат : MPEG-4 Visual
Профиль формата : Advanced Simple@L5
Параметр BVOP формата : 3
Параметр QPel формата : Нет
Параметр GMC формата : Без точки перехода
Параметр матрицы формата : Выборочная
Идентификатор кодека : XVID
Идентификатор кодека/Подсказка : XviD
Продолжительность : 1 ч. 57 м.
Битрейт : 1444 Кбит/сек
Ширина : 720 пикс.
Высота : 304 пикс.
Соотношение сторон : 2,35:1
Частота кадров : 23,976 кадр/сек
Цветовое пространство : YUV
Подвыборка цветности : 4:2:0
Битовая глубина : 8 бит
Тип развёртки : Прогрессивная
Метод сжатия : С потерями
Бит/(Пиксели*Кадры) : 0.275
Размер потока : 1,19 Гбайт (81%)
Библиотека кодирования : XviD 1.2.1 (UTC 2008-12-04)

Аудио
Идентификатор : 1
Формат : AC-3
Формат/Информация : Audio Coding 3
Расширение режима : CM (complete main)
Идентификатор кодека : 2000
Продолжительность : 1 ч. 57 м.
Вид битрейта : Постоянный
Битрейт : 320 Кбит/сек
Канал(ы) : 6 канала(ов)
Расположение каналов : Front: L C R, Side: L R, LFE
Частота : 48,0 КГц
Битовая глубина : 16 бит
Метод сжатия : С потерями
Размер потока : 269 Мбайт (18%)
Выравнивание : Разделение по промежуткам
Продолжительность промежутка : 42 мс. (1,00 видеокадр)
Время предзагрузки промежутка : 500 ms



Rip от:




реклама партнёра


Вернуться к началу
 Профиль Отправить личное сообщение  
 
   Похожие торренты   Автор   Торрент   Размер 
В этой теме нет новых непрочитанных сообщений. Бегущий по Лезвию / Blade Runner [Фантастика, триллер, драма, 1982] UHD BDRemux 2160p, Dub [4K] [Финальная версия]

salma3

44 | 38

65.65 ГБ

В этой теме нет новых непрочитанных сообщений. Бегущий в лабиринте / The Maze Runner [фантастика, триллер, приключения, 2014] BDRip-HEVC 1080p, Dub

salma3

109 | 33

3.98 ГБ

В этой теме нет новых непрочитанных сообщений. Бегущий в Лабиринте / The Maze Runner [Фантастика, Боевик, Триллер, Детектив, 2014] BDRip-AVC, Dub+Sub [iTunes]

Dracon

317 | 3

2.41 ГБ

В этой теме нет новых непрочитанных сообщений. Бегущий в лабиринте / The Maze Runner [Фантастика, Боевик, Триллер, Детектив, 2014] BDRip 1080p, Dub+Sub [Лицензия]

Dracon

487 | 28

11.85 ГБ

В этой теме нет новых непрочитанных сообщений. Бегущий в лабиринте / The Maze Runner [Фантастика, Боевик, Триллер, Детектив, 2014] BDRip 720p, Dub+Sub [Лицензия]

Dracon

5251 | 172

2.46 ГБ

В этой теме нет новых непрочитанных сообщений. Бегущий в лабиринте / The Maze Runner [Фантастика, Боевик, Триллер, Детектив, 2014] BDRip 1080p, Dub [iTunes]

Dracon

30 | 2

8.02 ГБ

В этой теме нет новых непрочитанных сообщений. Бегущий в лабиринте / The Maze Runner [Фантастика, Боевик, Триллер, Детектив, 2014] BDRip 720p, Dub [iTunes]

Dracon

7 | 2

6.19 ГБ


СообщениеДобавлено: 26 май 2011, 15:14 

Не в сети
Аватара пользователя
Дата регистрации:
14 мар 2011, 17:24
Возраст: 32
Спасибо: 14 / 8
Сообщения: 38
Откуда: 9CaraTT.COM
Уважаемый релизёр данного рипа, вы не могли бы чуть подправить релиз, огромная к вам просьба? Увидев свой рип в таком состоянии у Вас, удивился чесно говоря ... Код я вам сделал, зарание спасибо! :)

P.S Автор рипа.

Код:
[center][b][size=200][font=Georgia]Бегущий по лезвию / Blade Runner[/font][/size][/b][/center]
[imgright]http://i22.fastpic.ru/big/2011/0526/07/8c752a6d33a41008e814f02907d7ce07.png[/imgright]
[font=Georgia][b]Страна[/b]: США
[b]Жанр[/b]: Фантастика, триллер, драма
[b]Год выпуска[/b]: [color=darkred][b]1982[/b][/color]
[b]Продолжительность[/b]: 01:57:36
[b]Перевод[/b]:  Профессиональный (полное дублирование)
[b]Cубтитры[/b]: нет

[b]Режиссер[/b]: [b][color=#800000]Ридли Скотт / Ridley Scott[/color][/b]

[b]В ролях[/b]: [b][color=#800000]Харрисон Форд, Рутгер Хауэр[/color][/b], Шон Янг, Эдвард Джеймс Олмос,М. Эммет Уолш, Дэрил Ханна, Уильям Сэндерсон, Брайон Джеймс, Джо Тёркел, Джоанна Кэссиди

[b]Описание[/b]: Отставной детектив Рик Декард вновь восстановлен в полиции Лос-Анджелеса для поиска возглавляемой Роем Батти группы киборгов, совершившей побег из космической колонии на Землю.
В полиции считают, что киборги пытаются встретиться с Эндолом Тайреллом, руководителем корпорации, ставящей эксперименты над кибернетическим интеллектом. Рик Декард получает задание выяснить мотивы действий киборгов, а затем уничтожить их.

[url=http://www.kinopoisk.ru/level/1/film/403/][b]Рейтинг КиноПоиск.RU:[/b][/url] [b]7.724[/b]
[url=http://www.imdb.com/title/tt0083658/][b]Рейтинг IMDB:[/b][/url] [b]8.3/10[/b]
[url=http://www.kinopoisk.ru/level/38/film/403/rn/R/][b]Рейтинг MPAA:[/b][/url] [b]R[/b]

[b]Качество[/b]: [color=darkred][b]BDRip[/b][/color]
[b]Формат[/b]: AVI
[b]Видео кодек:[/b] XviD
[b]Аудио кодек:[/b] AC3
[b]Видео[/b]: 720x304 (2.37:1), 23.976 fps, XviD build 50 ~1444 kbps avg, 0.28 bit/pixel
[b]Аудио[/b]: 48 kHz, AC3 Dolby Digital, 3/2 (L,C,R,l,r) + LFE ch, ~320.00 kbps avg[/font]
[url=http://multi-up.com/468608][img]http://rudb.org/img/2010_09/i4c8bd59e197a9.gif[/img][/url]
[spoiler="Награды и номинации"]
[color=#804000][b]Оскар, 1983 год[/b][/color]
[b]Номинации (2):[/b]
Лучшие декорации
Лучшие визуальные эффекты
 
[b][color=#804000]Золотой глобус, 1983 год[/color][/b]   
Номинации (1):
[b]Лучший саундтрек[/b]
 
[b][color=#804000]Британская академия, 1983 год[/color][/b]   
[b]Победитель (3):[/b]
Лучшая работа оператора
Лучшая работа художника-постановщика
Лучшие костюмы
[b]Номинации (5):[/b]
Лучший звук
Лучший монтаж
Лучшие визуальные эффекты
Лучший саундтрек
Лучший грим[/spoiler][spoiler="MediaInfo"]
Полное имя                       : D:\Фильмы\Blade Runner.avi
Формат                           : AVI
Формат/Информация                : Audio Video Interleave
Размер файла                     : 1,46 Гбайт
Продолжительность                : 1 ч. 57 м.
Общий поток                      : 1774 Кбит/сек
Программа кодирования            : VirtualDubModRus 1.5.10.2 (build 2542/release)
Библиотека кодирования           : VirtualDubMod build 2542/release

Видео
Идентификатор                    : 0
Формат                           : MPEG-4 Visual
Профиль формата                  : Advanced Simple@L5
Параметр BVOP формата            : 3
Параметр QPel формата            : Нет
Параметр GMC формата             : Без точки перехода
Параметр матрицы формата         : Выборочная
Идентификатор кодека             : XVID
Идентификатор кодека/Подсказка   : XviD
Продолжительность                : 1 ч. 57 м.
Битрейт                          : 1444 Кбит/сек
Ширина                           : 720 пикс.
Высота                           : 304 пикс.
Соотношение сторон               : 2,35:1
Частота кадров                   : 23,976 кадр/сек
Цветовое пространство            : YUV
Подвыборка цветности             : 4:2:0
Битовая глубина                  : 8 бит
Тип развёртки                    : Прогрессивная
Метод сжатия                     : С потерями
Бит/(Пиксели*Кадры)              : 0.275
Размер потока                    : 1,19 Гбайт (81%)
Библиотека кодирования           : XviD 1.2.1 (UTC 2008-12-04)

Аудио
Идентификатор                    : 1
Формат                           : AC-3
Формат/Информация                : Audio Coding 3
Расширение режима                : CM (complete main)
Идентификатор кодека             : 2000
Продолжительность                : 1 ч. 57 м.
Вид битрейта                     : Постоянный
Битрейт                          : 320 Кбит/сек
Канал(ы)                         : 6 канала(ов)
Расположение каналов             : Front: L C R, Side: L R, LFE
Частота                          : 48,0 КГц
Битовая глубина                  : 16 бит
Метод сжатия                     : С потерями
Размер потока                    : 269 Мбайт (18%)
Выравнивание                     : Разделение по промежуткам
Продолжительность промежутка     : 42  мс. (1,00 видеокадр)
Время предзагрузки промежутка    : 500 ms[/spoiler][spoiler="Скриншоты"][img]http://i19.fastpic.ru/big/2011/0409/0b/a5e149ae5a09d33998483fd1e8b42b0b.png[/img][img]http://i19.fastpic.ru/big/2011/0409/87/942f6fcd81c122a5f1a5197f3857de87.png[/img][img]http://i19.fastpic.ru/big/2011/0409/27/5cb533db29727edc0d82181da5330927.png[/img][img]http://i19.fastpic.ru/big/2011/0409/b3/ef96d7bbc532213ae35f96bf8dcad3b3.png[/img]
[img]http://i19.fastpic.ru/big/2011/0409/72/10be914e9151f13180c57d54d315a072.png[/img][img]http://i19.fastpic.ru/big/2011/0409/c5/e38c7394ecdc7a34aa1f4770cb58afc5.png[/img][img]http://i19.fastpic.ru/big/2011/0409/d2/003dbc504d8c9aaec03b9f6230bcf4d2.png[/img][img]http://i19.fastpic.ru/big/2011/0409/20/48aca0910b7e96acca50260868a0a120.png[/img]
[/spoiler][u][i][b]Rip от:[/b][/i][/u] [img]http://i15.fastpic.ru/big/2011/0218/1d/10f772e6fbba6c8875f8817caf48591d.gif[/img]


Вернуться к началу
 Профиль Отправить личное сообщение  
 

СообщениеДобавлено: 26 май 2011, 19:38 

Не в сети
Аватара пользователя
Дата регистрации:
24 дек 2010, 18:42
Возраст: 25
Спасибо: 80 / 6
Сообщения: 299
Откуда: Астрахань
9CaraTT писал(а):
Уважаемый релизёр данного рипа, вы не могли бы чуть подправить релиз, огромная к вам просьба? Увидев свой рип в таком состоянии у Вас, удивился чесно говоря ... Код я вам сделал, зарание спасибо! :)

P.S Автор рипа.

Код:
[center][b][size=200][font=Georgia]Бегущий по лезвию / Blade Runner[/font][/size][/b][/center]
[imgright]http://i22.fastpic.ru/big/2011/0526/07/8c752a6d33a41008e814f02907d7ce07.png[/imgright]
[font=Georgia][b]Страна[/b]: США
[b]Жанр[/b]: Фантастика, триллер, драма
[b]Год выпуска[/b]: [color=darkred][b]1982[/b][/color]
[b]Продолжительность[/b]: 01:57:36
[b]Перевод[/b]:  Профессиональный (полное дублирование)
[b]Cубтитры[/b]: нет

[b]Режиссер[/b]: [b][color=#800000]Ридли Скотт / Ridley Scott[/color][/b]

[b]В ролях[/b]: [b][color=#800000]Харрисон Форд, Рутгер Хауэр[/color][/b], Шон Янг, Эдвард Джеймс Олмос,М. Эммет Уолш, Дэрил Ханна, Уильям Сэндерсон, Брайон Джеймс, Джо Тёркел, Джоанна Кэссиди

[b]Описание[/b]: Отставной детектив Рик Декард вновь восстановлен в полиции Лос-Анджелеса для поиска возглавляемой Роем Батти группы киборгов, совершившей побег из космической колонии на Землю.
В полиции считают, что киборги пытаются встретиться с Эндолом Тайреллом, руководителем корпорации, ставящей эксперименты над кибернетическим интеллектом. Рик Декард получает задание выяснить мотивы действий киборгов, а затем уничтожить их.

[url=http://www.kinopoisk.ru/level/1/film/403/][b]Рейтинг КиноПоиск.RU:[/b][/url] [b]7.724[/b]
[url=http://www.imdb.com/title/tt0083658/][b]Рейтинг IMDB:[/b][/url] [b]8.3/10[/b]
[url=http://www.kinopoisk.ru/level/38/film/403/rn/R/][b]Рейтинг MPAA:[/b][/url] [b]R[/b]

[b]Качество[/b]: [color=darkred][b]BDRip[/b][/color]
[b]Формат[/b]: AVI
[b]Видео кодек:[/b] XviD
[b]Аудио кодек:[/b] AC3
[b]Видео[/b]: 720x304 (2.37:1), 23.976 fps, XviD build 50 ~1444 kbps avg, 0.28 bit/pixel
[b]Аудио[/b]: 48 kHz, AC3 Dolby Digital, 3/2 (L,C,R,l,r) + LFE ch, ~320.00 kbps avg[/font]
[url=http://multi-up.com/468608][img]http://rudb.org/img/2010_09/i4c8bd59e197a9.gif[/img][/url]
[spoiler="Награды и номинации"]
[color=#804000][b]Оскар, 1983 год[/b][/color]
[b]Номинации (2):[/b]
Лучшие декорации
Лучшие визуальные эффекты
 
[b][color=#804000]Золотой глобус, 1983 год[/color][/b]   
Номинации (1):
[b]Лучший саундтрек[/b]
 
[b][color=#804000]Британская академия, 1983 год[/color][/b]   
[b]Победитель (3):[/b]
Лучшая работа оператора
Лучшая работа художника-постановщика
Лучшие костюмы
[b]Номинации (5):[/b]
Лучший звук
Лучший монтаж
Лучшие визуальные эффекты
Лучший саундтрек
Лучший грим[/spoiler][spoiler="MediaInfo"]
Полное имя                       : D:\Фильмы\Blade Runner.avi
Формат                           : AVI
Формат/Информация                : Audio Video Interleave
Размер файла                     : 1,46 Гбайт
Продолжительность                : 1 ч. 57 м.
Общий поток                      : 1774 Кбит/сек
Программа кодирования            : VirtualDubModRus 1.5.10.2 (build 2542/release)
Библиотека кодирования           : VirtualDubMod build 2542/release

Видео
Идентификатор                    : 0
Формат                           : MPEG-4 Visual
Профиль формата                  : Advanced Simple@L5
Параметр BVOP формата            : 3
Параметр QPel формата            : Нет
Параметр GMC формата             : Без точки перехода
Параметр матрицы формата         : Выборочная
Идентификатор кодека             : XVID
Идентификатор кодека/Подсказка   : XviD
Продолжительность                : 1 ч. 57 м.
Битрейт                          : 1444 Кбит/сек
Ширина                           : 720 пикс.
Высота                           : 304 пикс.
Соотношение сторон               : 2,35:1
Частота кадров                   : 23,976 кадр/сек
Цветовое пространство            : YUV
Подвыборка цветности             : 4:2:0
Битовая глубина                  : 8 бит
Тип развёртки                    : Прогрессивная
Метод сжатия                     : С потерями
Бит/(Пиксели*Кадры)              : 0.275
Размер потока                    : 1,19 Гбайт (81%)
Библиотека кодирования           : XviD 1.2.1 (UTC 2008-12-04)

Аудио
Идентификатор                    : 1
Формат                           : AC-3
Формат/Информация                : Audio Coding 3
Расширение режима                : CM (complete main)
Идентификатор кодека             : 2000
Продолжительность                : 1 ч. 57 м.
Вид битрейта                     : Постоянный
Битрейт                          : 320 Кбит/сек
Канал(ы)                         : 6 канала(ов)
Расположение каналов             : Front: L C R, Side: L R, LFE
Частота                          : 48,0 КГц
Битовая глубина                  : 16 бит
Метод сжатия                     : С потерями
Размер потока                    : 269 Мбайт (18%)
Выравнивание                     : Разделение по промежуткам
Продолжительность промежутка     : 42  мс. (1,00 видеокадр)
Время предзагрузки промежутка    : 500 ms[/spoiler][spoiler="Скриншоты"][img]http://i19.fastpic.ru/big/2011/0409/0b/a5e149ae5a09d33998483fd1e8b42b0b.png[/img][img]http://i19.fastpic.ru/big/2011/0409/87/942f6fcd81c122a5f1a5197f3857de87.png[/img][img]http://i19.fastpic.ru/big/2011/0409/27/5cb533db29727edc0d82181da5330927.png[/img][img]http://i19.fastpic.ru/big/2011/0409/b3/ef96d7bbc532213ae35f96bf8dcad3b3.png[/img]
[img]http://i19.fastpic.ru/big/2011/0409/72/10be914e9151f13180c57d54d315a072.png[/img][img]http://i19.fastpic.ru/big/2011/0409/c5/e38c7394ecdc7a34aa1f4770cb58afc5.png[/img][img]http://i19.fastpic.ru/big/2011/0409/d2/003dbc504d8c9aaec03b9f6230bcf4d2.png[/img][img]http://i19.fastpic.ru/big/2011/0409/20/48aca0910b7e96acca50260868a0a120.png[/img]
[/spoiler][u][i][b]Rip от:[/b][/i][/u] [img]http://i15.fastpic.ru/big/2011/0218/1d/10f772e6fbba6c8875f8817caf48591d.gif[/img]

Исправил

_________________
Понравился релиз? Не забудь сказать спасибо!
Фан-сайт сериала "Спартак" / Форум фан-сайта сериала "Спартак"
ICQ: 8758899
E-Mail: ygo.admin@gmail.com
О нас думают плохо лишь те, кто хуже нас, а те кто лучше нас... Им просто не до нас © Омар Хайям


Вернуться к началу
 Профиль Отправить личное сообщение  
 

СообщениеДобавлено: 26 май 2011, 23:23 

Не в сети
Аватара пользователя
Дата регистрации:
14 мар 2011, 17:24
Возраст: 32
Спасибо: 14 / 8
Сообщения: 38
Откуда: 9CaraTT.COM
Спасибо! :good:
У меня от всех своих рипов есть коды, если надо могу в л.с отправить ;)


Вернуться к началу
 Профиль Отправить личное сообщение  
 
Начать новую тему Ответить на тему  [ Сообщений: 4 ] 




Для Мосгорсуда, Роскомнадзора и рекламодателей:: mosgorsud-torrent[собачка]yandex.ru