Торрент файл
скачать торрент магнет ссылка Добавлен: 25 май 2011, 14:05
Размер: 2.72 ГБ
Сидеров: 111
Личеров: 6
Автор

СообщениеДобавлено: 25 май 2011, 14:05 

Не в сети
Супермодератор
Аватара пользователя
Дата регистрации:
22 май 2010, 11:03
Возраст: 31
Спасибо: 7518 / 13
Сообщения: 49940
Гарри Поттер и Дары смерти: Часть 1 / Harry Potter and the Deathly Hallows: Part 1




Перевод: Профессиональный (полное дублирование), cубтитры: отсутствуют
Формат: HDRip-AVC, MKV, H.264, AC3
Страна: США, Великобритания
Режиссер: Дэвид Йэтс
Жанр: боевик, фэнтези, приключения
Продолжительность: 02:26:05
Год выпуска: 2010

В ролях: Дэниэл Рэдклифф, Эмма Уотсон, Том Фелтон, Руперт Гринт, Хелена Бонем Картер, Рэйф Файнс, Клеманс Поэзи, Бонни Райт, Рис Иванс, Алан Рикман
Описание: Гарри Поттера ждёт самое страшное испытание в жизни - смертельная схватка с Волан-де-Мортом. Ждать помощи не от кого - Гарри одинок, как никогда… Друзья и враги Гарри предстают в совершенно неожиданном свете. Граница между Добром и Злом становится всё призрачнее…

Рейтинг:


Видео: 1024 x424 (2,40:1), 23,976 fps, AVC High@L3.1, (x264) ~1515 kbps avg, 0.146 bit/pixel
Аудио #1: Русский 48.0 KHz, AC3, (L,C,R,l,r) + LFE ch~384 Kbps [Профессиональный (полное дублирование)]
Аудио #2: Украинский 48.0 KHz, AC3, (L,C,R,l,r) + LFE ch~384 Kbps [Профессиональный (полное дублирование)]
Аудио #3: Английский 48.0 KHz, AC3, (L,C,R,l,r) + LFE ch~384 Kbps [Оригинал]

Общее
Полное имя: C:\Documents and Settings\Администратор\Мои документы\Downloads\Фильмы\harry_potter_and_the_deathly_hallows_part_1_[tfile.ru].mkv
Формат: Matroska
Размер файла: 2,72 Гбайт
Продолжительность: 2 ч. 26 м.
Общий поток: 2667 Кбит/сек
Дата кодирования: UTC 2011-04-10 12:43:00
Программа кодирования: mkvmerge v4.4.0 ('Die Wiederkehr') сборка от Oct 31 2010 21:52:48
Библиотека кодирования: libebml v1.0.0 + libmatroska v1.0.0

Видео
Идентификатор: 2
Формат: AVC
Формат/Информация: Advanced Video Codec
Профиль формата: High@L3.1
Параметр CABAC формата: Да
Параметр ReFrames формата: 8 кадры
Режим смешивания: Container profile=Unknown@3.1
Идентификатор кодека: V_MPEG4/ISO/AVC
Продолжительность: 2 ч. 26 м.
Битрейт: 1515 Кбит/сек
Ширина: 1024 пикс.
Высота: 424 пикс.
Соотношение сторон: 2,40:1
Частота кадров: 23,976 кадр/сек
Цветовое пространство: YUV
Подвыборка цветности: 4:2:0
Битовая глубина: 8 бит
Тип развёртки: Прогрессивная
Бит/(Пиксели*Кадры): 0.146
Размер потока: 1,49 Гбайт (55%)
Библиотека кодирования: x264 core 92 r1510 33d382a
Настройки программы: cabac=1 / ref=8 / deblock=1:-1:-1 / analyse=0x3:0x133 / me=umh / subme=7 / psy=1 / psy_rd=1.00:0.10 / mixed_ref=1 / me_range=16 / chroma_me=1 / trellis=2 / 8x8dct=1 / cqm=0 / deadzone=21,11 / fast_pskip=0 / chroma_qp_offset=-3 / threads=3 / sliced_threads=0 / nr=0 / decimate=1 / interlaced=0 / constrained_intra=0 / bframes=3 / b_pyramid=2 / b_adapt=2 / b_bias=0 / direct=3 / wpredb=1 / wpredp=2 / keyint=250 / keyint_min=25 / scenecut=40 / intra_refresh=0 / rc_lookahead=50 / rc=2pass / mbtree=1 / bitrate=1515 / ratetol=1.0 / qcomp=0.60 / qpmin=10 / qpmax=51 / qpstep=4 / cplxblur=20.0 / qblur=0.5 / ip_ratio=1.40 / aq=1:1.00

Аудио #1
Идентификатор: 1
Формат: AC-3
Формат/Информация: Audio Coding 3
Расширение режима: CM (complete main)
Режим смешивания: Header stripping
Идентификатор кодека: A_AC3
Продолжительность: 2 ч. 26 м.
Вид битрейта: Постоянный
Битрейт: 384 Кбит/сек
Канал(ы): 6 канала(ов)
Расположение каналов: Front: L C R, Side: L R, LFE
Частота: 48,0 КГц
Битовая глубина: 16 бит
Размер потока: 401 Мбайт (14%)
Заголовок: eng
Язык: English

Аудио #2
Идентификатор: 3
Формат: AC-3
Формат/Информация: Audio Coding 3
Расширение режима: CM (complete main)
Режим смешивания: Header stripping
Идентификатор кодека: A_AC3
Продолжительность: 2 ч. 26 м.
Вид битрейта: Постоянный
Битрейт: 384 Кбит/сек
Канал(ы): 6 канала(ов)
Расположение каналов: Front: L C R, Side: L R, LFE
Частота: 48,0 КГц
Битовая глубина: 16 бит
Размер потока: 401 Мбайт (14%)
Заголовок: rus
Язык: Russian

Аудио #3
Идентификатор: 4
Формат: AC-3
Формат/Информация: Audio Coding 3
Расширение режима: CM (complete main)
Режим смешивания: Header stripping
Идентификатор кодека: A_AC3
Продолжительность: 2 ч. 26 м.
Вид битрейта: Постоянный
Битрейт: 384 Кбит/сек
Канал(ы): 6 канала(ов)
Расположение каналов: Front: L C R, Side: L R, LFE
Частота: 48,0 КГц
Битовая глубина: 16 бит
Размер потока: 401 Мбайт (14%)
Заголовок: ukr
Язык: Ukrainian
















реклама партнёра


Вернуться к началу
 Профиль Отправить личное сообщение  
 
   Похожие торренты   Автор   Торрент   Размер 
В этой теме нет новых непрочитанных сообщений. Да / Yes (Салли Поттер / Sally Potter) [2004г., Великобритания, драма, мелодрама, DVDRip] MVO

Alfredovich

8 | 0

1.45 ГБ

В этой теме нет новых непрочитанных сообщений. Мисс Поттер / Miss Potter [драма, биография, 2006] BDRip 720p, Dub+Sub

salma3

21 | 2

3.18 ГБ

В этой теме нет новых непрочитанных сообщений. Паразит: Часть 2 / Kiseijû: Part 2 (Такаси Ямадзаки) [Фантастика, ужасы, 2015] HDRip, dvo

Dracon

254 | 16

1.45 ГБ

В этой теме нет новых непрочитанных сообщений. Двуличие / Trouble (Гарри Клевен / Harry Cleven)[2005г., Франция, триллер, DVDRip-AVC] MVO

Alfredovich

102 | 7

1.46 ГБ

В этой теме нет новых непрочитанных сообщений. Гарри и Уолтер едут в Нью-Йорк / Harry and Walter Go to New York [комедия, криминал, 1976] DVDRip, Mvo

salma3

215 | 43

1.47 ГБ

В этой теме нет новых непрочитанных сообщений. Атлант расправил плечи: Часть 3 / Atlas Shrugged: Part III (Джеймс Манера) [Фантастика, драма, детектив, 2014] HDRip, dvo

Dracon

5 | 1

1.45 ГБ

В этой теме нет новых непрочитанных сообщений. Призраки Гарри Пэйна: Зло не умрет никогда / The Haunting of Harry Payne [ужасы, триллер, 2014] DVDRip, dvo

Dracon

184 | 7

1.41 ГБ


Начать новую тему Ответить на тему  [ 1 сообщение ] 




Для Мосгорсуда, Роскомнадзора и рекламодателей:: mosgorsud-torrent[собачка]yandex.ru