Торрент файл
скачать торрент магнет ссылка Добавлен: 25 май 2011, 14:05
Размер: 1.45 ГБ
Сидеров: 15
Личеров: 1
Автор

СообщениеДобавлено: 25 май 2011, 14:05 

Не в сети
Супермодератор
Аватара пользователя
Дата регистрации:
22 май 2010, 11:03
Возраст: 31
Спасибо: 7524 / 13
Сообщения: 49940
Кольцо Нибелунгов / Сurse of the ring

Перевод: Профессиональный (многоголосый, закадровый), cубтитры: отсутствуют
Формат: DVDRip-AVC, MKV, H.264, MP3
Страна: Великобритания, Германия, США, Италия
Режиссер: Ули Эдель
Жанр: фэнтези
Продолжительность: 02:56:39
Год выпуска: 2004
В ролях: Кристанна Локен, Роберт Паттинсон, Алисия Уитт, Бенно Фюрманн, Джулиан Сэндз, Сэмюэл Уэст, Макс фон Зюдов, Мави Хербигер
Описание: Ha заре мира, когда Землю населяли фантастические создания, а на небе правили всесильные боги, жили люди, называвишё себя Нибелунгами . Они были богаты и могущественны, и боялись лишь одного - терроризировавшего их земли ужасногр дракона Фафнира. И тогда явился герой no имени Зигфрид. Сын кузнеца, на самом деле он был королевских кровей, хотя до поры не знал тайны своего происхождения. Зигфрид сокрушил Фафнира и стал хозяином его несметных сокровищ, но над этим кладом довлело проклятье. И кто бы мог подумать, что оно постигнет героя в облике синеокой валькирии Брунгильды, прекрасной королевы-воительницы Исландии... Так начинается величайшая сага в истории Европы - "Песнь о Нибелунгах ".






Видео: 720x576@1024x576(16:9), 25 fps, AVC (x264) High@L4.0, ~913 kbps avg, 0.088 bit/pixel
Аудио: 48 kHz, MPEG Layer 3, 2 ch, ~256.00 kbps avg
Video
ID: 1
Format: AVC
Format/Info: Advanced Video Codec
Format profile: High@L4.0
Format settings, CABAC: Yes
Format settings, ReFrames: 6 frames
Format settings, GOP: M=1, N=21
Muxing mode: Container profile=Unknown@4.0
Codec ID: V_MPEG4/ISO/AVC
Duration: 2h 56mn
Bit rate: 913 Kbps
Width: 720 pixels
Height: 576 pixels
Display aspect ratio: 16:9
Original display aspect ratio: 5:4
Frame rate: 25.000 fps
Standard: PAL
Color space: YUV
Chroma subsampling: 4:2:0
Bit depth: 8 bits
Scan type: Progressive
Bits/(Pixel*Frame): 0.088
Stream size: 1.10 GiB (76%)

Audio
ID: 2
Format: MPEG Audio
Format version: Version 1
Format profile: Layer 3
Mode: Joint stereo
Mode extension: MS Stereo
Codec ID: A_MPEG/L3
Codec ID/Hint: MP3
Duration: 2h 56mn
Bit rate mode: Variable
Bit rate: 256 Kbps
Channel(s): 2 channels
Sampling rate: 48.0 KHz
Stream size: 324 MiB (22%)
Writing library: LAME3.98r
Encoding settings: -m j -V 4 -q 3 -lowpass 19.7 --abr
Language: Russian












реклама партнёра


Вернуться к началу
 Профиль Отправить личное сообщение  
 
   Похожие торренты   Автор   Торрент   Размер 
В этой теме нет новых непрочитанных сообщений. Огненное кольцо 2: Огонь и сталь / Ring of Fire II: Blood and Steel [Боевик, драма, 1993] DVDRip, Mvo

salma3

17 | 1

1.37 ГБ

В этой теме нет новых непрочитанных сообщений. Кольцо дракона / George and the Dragon [Фэнтези, боевик, мелодрама, комедия, приключения, 2004] DVD-5, Mvo+Sub

salma3

0 | 4

4.3 ГБ

В этой теме нет новых непрочитанных сообщений. I Сurse The Day - The Doomsday [2011, Deathcore, MP3]

PriZraK

0 | 1

72.29 МБ

В этой теме нет новых непрочитанных сообщений. My Indole Ring - My Indole Ring [1966 - 1969, Psychedelic Rock, MP3]

PriZraK

0 | 1

157.56 МБ

В этой теме нет новых непрочитанных сообщений. Кольцо для актрисы / Balram vs. Tharadas [боевик, триллер, криминал, 2006] DVDRip, Mvo

salma3

6 | 3

2.05 ГБ

В этой теме нет новых непрочитанных сообщений. Железный ринг / Ring of Steel [Боевик, драма, 1994] DVDRip, Avo

salma3

31 | 7

1.45 ГБ

В этой теме нет новых непрочитанных сообщений. Страх как он есть / Ring Around the Rosie [ужасы, триллер, 2006] DVDRip, Mvo

salma3

32 | 2

698.17 МБ


Начать новую тему Ответить на тему  [ 1 сообщение ] 




Для Мосгорсуда, Роскомнадзора и рекламодателей:: mosgorsud-torrent[собачка]yandex.ru