Торрент файл
скачать торрент магнет ссылка Добавлен: 25 май 2011, 14:03
Размер: 893.26 МБ
Сидеров: 10
Личеров: 9
Автор

СообщениеДобавлено: 25 май 2011, 14:03 

Не в сети
Супермодератор
Аватара пользователя
Дата регистрации:
22 май 2010, 11:03
Возраст: 31
Спасибо: 7513 / 13
Сообщения: 49940
Хроники Нарнии: Принц Каспиан / The Chronicles of Narnia: Prince Caspian

«Всё, что вы знаете, скоро изменится»

Перевод: Профессиональный (полное дублирование)
Субтитры:отсутствуют
Формат: LowHDRip, MKV, H.264, MP3

Страна: США, Польша, Чехия, Словения
Режиссер: Эндрю Адамсон
Жанр: фэнтези, боевик, приключения, семейный

Продолжительность: 02:29:58
Год выпуска: 2008

В ролях: Бен Барнс, Джорджи Хенли, Скандар Кейнс, Уильям Моусли, Анна Попплуэлл, Серджио Кастеллитто, Питер Динклэйдж, Уорвик Дэвис, Винсент Грасс, Пьерфранческо Фавино

Описание: Люси, Сьюзен, Эдмунд и Питер Пэванси возвращаются в Нарнию. В Англии прошло совсем немного времени, а в Нарнии — века. Страна находится под гнетом зловещего короля Мираза. Но у волшебного королевства есть надежда — юный принц Каспиан. Чтобы помочь Каспиану отвоевать трон, четверо героев собирают армию мифических существ во главе с Асланом — основателем и покровителем Нарнии…







Видео: 720x304 (2.35:1), 23.976 fps, MPEG-4 AVC (x264) High@L3.1, ~705 kbps avg, 0.134 bit/pixel
Аудио: 48 kHz, MPEG Layer 3, 2 ch, ~126 kbps avg




General
Unique ID: 245997269224148561042073605256333277194 (0xB91159C7B683450CBA1CBDC0DC60B80A)
Complete name: D:\Films\prince_caspian_[tfile.ru].mkv
Format: Matroska
File size: 893 MiB
Duration: 2h 29mn
Overall bit rate: 833 Kbps
Encoded date: UTC 2009-11-13 18:05:41
Writing application: mkvmerge v2.9.7 ('Tenderness') built on Jul1 2009 18:43:35
Writing library: libebml v0.7.7 + libmatroska v0.8.1

Video
ID: 1
Format: AVC
Format/Info: Advanced Video Codec
Format profile: High@L3.1
Format settings, CABAC: Yes
Format settings, ReFrames: 16 frames
Format settings, GOP: M=1, N=2
Codec ID: V_MPEG4/ISO/AVC
Duration: 2h 29mn
Bit rate: 705 Kbps
Width: 720 pixels
Height: 304 pixels
Display aspect ratio: 2.35:1
Frame rate: 23.976 fps
Color space: YUV
Chroma subsampling: 4:2:0
Bit depth: 8 bits
Scan type: Progressive
Bits/(Pixel*Frame): 0.134
Stream size: 740 MiB (83%)
Title: Хроники Нарнии Принц Каспиан [The Chronicles of Narnia Prince Caspian.2008.D.RP4][alco.rampage.ru]
Writing library: x264 core 68 r1183M f21daff
Encoding settings: cabac=1 / ref=16 / deblock=1:-1:-1 / analyse=0x3:0x133 / me=tesa / subme=9 / psy_rd=1.0:0.0 / mixed_ref=1 / me_range=32 / chroma_me=1 / trellis=2 / 8x8dct=1 / cqm=0 / deadzone=21,11 / chroma_qp_offset=-4 / threads=6 / nr=0 / decimate=0 / mbaff=0 / bframes=4 / b_pyramid=1 / b_adapt=2 / b_bias=0 / direct=3 / wpredb=1 / keyint=250 / keyint_min=25 / scenecut=40 / rc=2pass / bitrate=705 / ratetol=1.0 / qcomp=0.60 / qpmin=10 / qpmax=51 / qpstep=4 / cplxblur=20.0 / qblur=0.5 / ip_ratio=1.40 / pb_ratio=1.30 / aq=1:1.00 / zones=198159,215750,q=40
Language: English

Audio
ID: 2
Format: MPEG Audio
Format version: Version 1
Format profile: Layer 3
Mode: Joint stereo
Mode extension: MS Stereo
Codec ID: A_MPEG/L3
Codec ID/Hint: MP3
Duration: 2h 29mn
Bit rate mode: Variable
Bit rate: 126 Kbps
Nominal bit rate: 135 Kbps
Channel(s): 2 channels
Sampling rate: 48.0 KHz
Compression mode: Lossy
Stream size: 135 MiB (15%)
Title: Хроники Нарнии Принц Каспиан [The Chronicles of Narnia Prince Caspian.2008.D.RP4][alco.rampage.ru]
Writing library: LAME3.98r
Encoding settings: -m j -V 4 -q 3 -lowpass 17 --abr 135
Language: Russian














реклама партнёра


Вернуться к началу
 Профиль Отправить личное сообщение  
 
   Похожие торренты   Автор   Торрент   Размер 
В этой теме нет новых непрочитанных сообщений. Хроники тьмы / Midnight Chronicles [фэнтези. 2008] DVDRip, Mvo

salma3

0 | 2

700.59 МБ

В этой теме нет новых непрочитанных сообщений. Дракула: Тёмный принц / Dracula: The Dark Prince (Тео Пирри) [Фэнтези, 2013] HDRip, avo

Dracon

12 | 4

1.35 ГБ

В этой теме нет новых непрочитанных сообщений. Темный принц / Dracula: The Dark Prince (Тео Пирри) [Фэнтези, 2013] BDRip 720p, avo

Dracon

68 | 7

4.51 ГБ

В этой теме нет новых непрочитанных сообщений. Темный принц / Dracula: The Dark Prince (Тео Пирри) [Фэнтези, 2013] BDRip 1080p, avo

Dracon

12 | 4

8.85 ГБ

В этой теме нет новых непрочитанных сообщений. Хроники Шаннары / The Shannara Chronicles [1 сезон: 1-7 серии из 10] [Фантастика, фэнтези, приключения, 2016] WEB-DLRip (1080p), Mvo [NewStudio]

Dracon

8 | 14

11.01 ГБ

В этой теме нет новых непрочитанных сообщений. Хроники Шаннары / The Shannara Chronicles [1 сезон: 1-6 серии из 10] [Фантастика, фэнтези, приключения, 2016] WEB-DLRip (1080p) [LostFilm]

Dracon

443 | 535

9.46 ГБ

В этой теме нет новых непрочитанных сообщений. Хроники Шаннары / The Shannara Chronicles [01х01-04 из 10] (Брэд Тернер, Джонатан Либесман, Джеймс Маршалл) [2016, фантастика, фэнтези, приключения, WEB-DLRip | HamsterStudio]

Nickolas3434

860 | 564

1.56 ГБ


Начать новую тему Ответить на тему  [ 1 сообщение ] 




Для Мосгорсуда, Роскомнадзора и рекламодателей:: mosgorsud-torrent[собачка]yandex.ru