Торрент файл
скачать торрент магнет ссылка Добавлен: 25 май 2011, 13:55
Размер: 1.85 ГБ
Сидеров: 33
Личеров: 14
Автор

СообщениеДобавлено: 25 май 2011, 13:55 

Не в сети
Супермодератор
Аватара пользователя
Дата регистрации:
22 май 2010, 11:03
Возраст: 31
Спасибо: 7509 / 13
Сообщения: 49940
История одного вампира / Cirque du Freak: The Vampire's Assistant



Слоган: «Представление начинается в полночь»

Перевод: Профессиональный (полное дублирование)
Субтитры: Отсутствуют
Формат: HDRip-AVC, MKV, H.264, AC3

Страна: США

Режиссер: Пол Вайц
Жанр: Боевик, Триллер, Фэнтези, Приключения
Продолжительность: 01:49:05
Год выпуска: 2009

В ролях: Дон МакМанус, Моргон Сэйлор, Джессика Карлсон, Джон Си Райли, Дэниэл Ньюман, Патрик Фьюджит, Майкл Серверис, Джош Хатчерсон, Рэй Стивенсон, Крис Дж. Келли

Описание: Даррен Шэн был обычным школьником. Пока однажды не отправился на представление в цирк уродов… Пока не встретил мадам Окту… Пока не столкнулся лицом к лицу с призраком ночи..

Вскоре Даррен и его друг Стив оказываются в смертельной ловушке. Даррен заключает сделку с существом, которое одно только и может спасти Стива. Правда сделка эта замешана на крови…








Видео: 1280*544(2,35:1), 23,976 fps, AVC х264, High@L4.1, ~ 1 934 Kbps avg, 0.116 bit/pixel
Аудио: 48,0 KHz,AC3 LCR, L,R, LFE, 6 channels, 448 Kbps

Релиз группы:

D:\Films\istoriya_odnogo_vampira.mkv
General
Complete name : D:\Films\istoriya_odnogo_vampira.mkv
Format : Matroska
File size : 1.85 GiB
Duration : 1h 49mn
Overall bit rate : 2 430 Kbps
Movie name : История одного вампира
Encoded date : UTC 2010-09-09 18:42:17
Writing application : mkvmerge v4.0.0 ('The Stars were mine') сборка от Jun 11 2010 23:24:27
Writing library : libebml v1.0.0 + libmatroska v1.0.0
Video #1
ID : 1
Format : AVC
Format/Info : Advanced Video Codec
Format profile : High@L4.1
Format settings, CABAC : Yes
Format settings, ReFrames : 3 frames
Muxing mode : Container profile=Unknown@4.1
Codec ID : V_MPEG4/ISO/AVC
Duration : 1h 48mn
Bit rate : 1 934 Kbps
Nominal bit rate : 2 003 Kbps
Width : 1 280 pixels
Height : 544 pixels
Display aspect ratio : 2.35:1
Original display aspect ratio : 2.35:1
Frame rate : 23.976 fps
Resolution : 24 bits
Colorimetry : 4:2:0
Scan type : Progressive
Bits/(Pixel*Frame) : 0.116
Stream size : 1.47 GiB (79%)
Writing library : x264 core 104 r1688 0b36c6d
Encoding settings : cabac=1 / ref=4 / deblock=1:0:0 / analyse=0x3:0x113 / me=umh / subme=8 / psy=1 / psy_rd=1.00:0.00 / mixed_ref=1 / me_range=16 / chroma_me=1 / trellis=1 / 8x8dct=1 / cqm=0 / deadzone=21,11 / fast_pskip=1 / chroma_qp_offset=-2 / threads=6 / sliced_threads=0 / slices=4 / nr=0 / decimate=1 / interlaced=0 / constrained_intra=0 / bframes=3 / b_pyramid=1 / b_adapt=1 / b_bias=0 / direct=3 / weightb=1 / open_gop=0 / weightp=0 / keyint=24 / keyint_min=1 / scenecut=40 / intra_refresh=0 / rc_lookahead=24 / rc=abr / mbtree=1 / bitrate=2003 / ratetol=1.0 / qcomp=0.60 / qpmin=0 / qpmax=51 / qpstep=4 / vbv_maxrate=17500 / vbv_bufsize=14500 / ip_ratio=1.10 / aq=1:1.00 / nal_hrd=vbr
Audio #2
ID : 2
Format : AC-3
Format/Info : Audio Coding 3
Codec ID : A_AC3
Duration : 1h 49mn
Bit rate mode : Constant
Bit rate : 448 Kbps
Channel(s) : 6 channels
Channel positions : Front: L C R, Surround: L R, LFE
Sampling rate : 48.0 KHz
Video delay : 1s 936ms
Stream size : 350 MiB (18%)
Language : Russian

______________________________










реклама партнёра


Вернуться к началу
 Профиль Отправить личное сообщение  
 
   Похожие торренты   Автор   Торрент   Размер 
В этой теме нет новых непрочитанных сообщений. Дневники вампира / The Vampire Diaries [S01-06] (Кевин Брэй, Дж. Миллер Тобин, Маркос Сига) [Драма, Мелодрама, Ужасы, Фэнтези, 2009-2015] WEB-DL 720p [LostFilm]

Dracon

6 | 60

188.25 ГБ

В этой теме нет новых непрочитанных сообщений. Объятия вампира / Embrace Of The Vampire [Ужасы, 2013] HDRip, Avo

salma3

65 | 4

1.43 ГБ

В этой теме нет новых непрочитанных сообщений. Дневники Вампира / The Vampire Diaries [07х05 из 22] [ужасы, фэнтези, триллер, 2015] WEB-DLRip, Mvo [LostFilm]

salma3

372 | 1088

2 ГБ

В этой теме нет новых непрочитанных сообщений. Объятия вампира / Embrace Of The Vampire (Карл Бессай) [Ужасы, 2013] HDRip, Mvo [iTunes]

Dracon

243 | 11

1.37 ГБ

В этой теме нет новых непрочитанных сообщений. Дневники Вампира / The Vampire Diaries / 6 сезон 1-22 серии из 22 [ужасы, фэнтези, мелодрама, драма, 2014] WEB-DLRip, Dvo [Кубик в Кубе]

salma3

99 | 216

12.54 ГБ

В этой теме нет новых непрочитанных сообщений. Дневники Вампира / The Vampire Diaries [06x01-04 из 22] [2014, ужасы, фэнтези, триллер, драма, мелодрама, детектив, WEB-DLRip | LostFilm]

Nickolas3435

558 | 436

1.93 ГБ

В этой теме нет новых непрочитанных сообщений. Дневники Вампира / The Vampire Diaries [06x01-09] (Маркос Сига, Элизабет Аллен) [2014, Ужасы, фэнтези, драма, мелодрама, HDTVRip | ColdFilm]

Nickolas3435

204 | 509

3.81 ГБ


Начать новую тему Ответить на тему  [ 1 сообщение ] 




Для Мосгорсуда, Роскомнадзора и рекламодателей:: mosgorsud-torrent[собачка]yandex.ru