Торрент файл
скачать торрент магнет ссылка Добавлен: 25 май 2011, 13:54
Размер: 2.19 ГБ
Сидеров: 27
Личеров: 4
Автор

СообщениеДобавлено: 25 май 2011, 13:54 

Не в сети
Супермодератор
Аватара пользователя
Дата регистрации:
22 май 2010, 11:03
Возраст: 31
Спасибо: 7509 / 13
Сообщения: 49940
Вторжение / The Invasion


«Никому не верь. Ни на что не реагируй. ...И не спи»

Перевод: Профессиональный (полное дублирование), cубтитры: отсутствуют
Формат: HDRip-AVC, MKV, H.264, AC3
Страна: США, Австралия
Режиссер: Оливер Хиршбигель, Джеймс МакТиг
Жанр: фантастика, триллер
Продолжительность: 01:39:22
Год выпуска: 2007

В ролях: Николь Кидман, Дэниэл Крэйг, Джереми Нортэм, Джексон Бонд, Джеффри Райт, Вероника Картрайт, Йозеф Зоммер, Селия Уэстон, Роджер Риc, Эрик Бенжамин, Сьюзэн Флойд, Стефани Берри, Алексис Рабен, Адам ЛеФевр, Джоанна Мерлин, Филд Бловелт, Ронда Оверби, Брэндон Прайс

Описание: История о таинственной эпидемии, которую насылают на жителей маленького городка внедрившиеся на планету инопланетяне. Героине Николь Кидман, психиатру из Вашингтона, удается найти причину непонятных изменений в поведении людей этого города.



Видео: 1280x720 (16:9), 23,976 fps,AVC (x264), High@L4.1, ~2787 kbps, 0.126 bit/pixel
Аудио: 48 kHz, AC3 Dolby Digital, 3/2 (L,C,R,l,r) + LFE ch, ~384 kbps


Общее
Уникальный идентификатор: 253632875649790678372539832040042513274 (0xBECFEA3E0FFBC020BEA9385BF02BC37A)
Полное имя: D:\Фильмы\vtorjenie.mkv
Формат: Matroska
Размер файла: 2,19 Гбайт
Продолжительность: 1 ч. 39 м.
Общий поток: 3149 Кбит/сек
Название фильма: Rip by PunisheR [nolimits-team.ru]
Дата кодирования: UTC 2011-04-24 10:23:08
Программа кодирования: mkvmerge v3.2.0 ('Beginnings') built on Feb 12 2010 16:46:17
Библиотека кодирования: libebml v0.7.9 + libmatroska v0.8.1

Видео
Идентификатор: 2
Формат: AVC
Формат/Информация: Advanced Video Codec
Профиль формата: High@L4.1
Параметр CABAC формата: Да
Параметр ReFrames формата: 3 кадра
Параметры GOP формата: M=4, N=24
Идентификатор кодека: V_MPEG4/ISO/AVC
Продолжительность: 1 ч. 39 м.
Вид битрейта: Переменный
Битрейт: 2787 Кбит/сек
Максимальный битрейт: 15,0 Мбит/сек
Ширина: 1280 пикс.
Высота: 720 пикс.
Соотношение сторон: 16:9
Частота кадров: 23,976 кадр/сек
Цветовое пространство: YUV
Подвыборка цветности: 4:2:0
Битовая глубина: 8 бит
Тип развёртки: Прогрессивная
Бит/(Пиксели*Кадры): 0.126
Размер потока: 1,88 Гбайт (86%)
Заголовок: Invasion.2007.[nolimits-team.ru]
Библиотека кодирования: x264 core 114 r1913 5fd3dce
Настройки программы: cabac=1 / ref=1 / deblock=1:0:0 / analyse=0x3:0x3 / me=dia / subme=1 / psy=1 / psy_rd=0.00:0.00 / mixed_ref=0 / me_range=16 / chroma_me=1 / trellis=0 / 8x8dct=1 / cqm=0 / deadzone=21,11 / fast_pskip=1 / chroma_qp_offset=0 / threads=6 / sliced_threads=0 / slices=4 / nr=0 / decimate=1 / interlaced=0 / constrained_intra=0 / bframes=3 / b_pyramid=1 / b_adapt=1 / b_bias=0 / direct=1 / weightb=1 / open_gop=0 / weightp=1 / keyint=24 / keyint_min=1 / scenecut=40 / intra_refresh=0 / rc_lookahead=0 / rc=abr / mbtree=0 / bitrate=2787 / ratetol=1.0 / qcomp=0.60 / qpmin=0 / qpmax=69 / qpstep=4 / vbv_maxrate=15000 / vbv_bufsize=15000 / nal_hrd=vbr / ip_ratio=1.10 / pb_ratio=1.10 / aq=1:1.00
Язык: English

Аудио
Идентификатор: 1
Формат: AC-3
Формат/Информация: Audio Coding 3
Расширение режима: CM (complete main)
Идентификатор кодека: A_AC3
Продолжительность: 1 ч. 39 м.
Вид битрейта: Постоянный
Битрейт: 384 Кбит/сек
Каналы: 6 каналов
Расположение каналов: Front: L C R, Side: L R, LFE
Частота: 48,0 КГц
Битовая глубина: 16 бит
Метод сжатия: С потерями
Размер потока: 273 Мбайт (12%)
Язык: Russian










реклама партнёра


Вернуться к началу
 Профиль Отправить личное сообщение  
 
   Похожие торренты   Автор   Торрент   Размер 
В этой теме нет новых непрочитанных сообщений. Сдохни! / Вторжение в Росвелл / Invasion Roswell [фантастика, боевик, 2013] HDRip, Mvo

Dracon

664 | 22

1.37 ГБ

В этой теме нет новых непрочитанных сообщений. Вторжение гигантских пауков / The Giant Spider Invasion [ужасы, фантастика, 1975] DVDRip, Avo

salma3

1 | 2

1.46 ГБ

В этой теме нет новых непрочитанных сообщений. Сдохни! / Вторжение в Росвелл / Invasion Roswell [фантастика, боевик, 2013] BDRip 720p, Mvo

Dracon

269 | 4

3.39 ГБ

В этой теме нет новых непрочитанных сообщений. Вторжение в Розуэлл / Сдохни! / Invasion Roswell / Exterminators / Battle: Earth [фантастика, боевик, 2013] BDRip 1080p, Dvo

salma3

178 | 20

7.04 ГБ

В этой теме нет новых непрочитанных сообщений. Уцелевшая / Survivor (Джеймс МакТиг) [боевик, триллер, 2015] WEB-DLRip, mvo

Dracon

16 | 0

1.45 ГБ

В этой теме нет новых непрочитанных сообщений. Уцелевшая / Survivor (Джеймс МакТиг) [боевик, триллер, 2015] BDRip 720p, mvo

Dracon

125 | 16

4.67 ГБ

В этой теме нет новых непрочитанных сообщений. Уцелевшая / Survivor (Джеймс МакТиг) [боевик, триллер, 2015] BDRip 1080p, mvo

Dracon

165 | 10

6.86 ГБ


Начать новую тему Ответить на тему  [ 1 сообщение ] 




Для Мосгорсуда, Роскомнадзора и рекламодателей:: mosgorsud-torrent[собачка]yandex.ru