Торрент файл
скачать торрент магнет ссылка Добавлен: 25 май 2011, 13:54
Размер: 2.19 ГБ
Сидеров: 5
Личеров: 5
Автор

СообщениеДобавлено: 25 май 2011, 13:54 

Не в сети
Супермодератор
Аватара пользователя
Дата регистрации:
22 май 2010, 11:03
Возраст: 31
Спасибо: 7524 / 13
Сообщения: 49940
Призрачная машина / Ghost Machine

Перевод: Любительский (двухголосый), cубтитры: отсутствуют
Формат: HDRip-AVC, MKV, H.264, AC3
Страна: Великобритания
Режиссер: Крис Хартфилл
Жанр: Фантастика, триллер, боевик.
Продолжительность: 01:32:01
Год выпуска: 2009

В ролях: Шон Фэрис, Рэйчел Тейлор, Люк Форд, Джошуа Даллас, Сэм Корри, Халла Вильялмсдоттир.

Описание: Два военных техника борются против мстительного духа, который заразил их украденное военное программное обеспечение



Видео: 1280x545(2,35:1),23,976 fps, AVC (x264), High@L4.1,~ 2966 kbps avg, 0.178 bit/pixel.
Аудио: 48 kHz, AC3, 6 ch (Front: L C R, Side: L R, LFE),~448 kbps avg.

Общее
Уникальный идентификатор : 240521865686037452013750573544363637877 (0xB4F2D38B0C6D81EEA6053790392DBC75)
Полное имя : L:\Фильмы\Upload new 14\Ghost.Machine.2009.BDRip..mkv
Формат : Matroska
Размер файла : 2,19 Гбайт
Продолжительность : 1 ч. 32 м.
Общий поток : 3405 Кбит/сек
Название фильма : Rip by herrower (NOLIMITS-TEAM.RU)
Дата кодирования : UTC 2011-05-04 19:04:37
Программа кодирования : mkvmerge v3.0.0 ('Hang up your Hang-Ups') built on Dec 12 2009 15:20:35
Библиотека кодирования : libebml v0.7.9 + libmatroska v0.8.1

Видео
Идентификатор : 2
Формат : AVC
Формат/Информация : Advanced Video Codec
Профиль формата : High@L4.1
Параметр CABAC формата : Да
Параметр ReFrames формата : 3 кадры
Параметры GOP формата : M=1, N=16
Идентификатор кодека : V_MPEG4/ISO/AVC
Продолжительность : 1 ч. 32 м.
Вид битрейта : Переменный
Битрейт : 2966 Кбит/сек
Максимальный битрейт : 15,0 Мбит/сек
Ширина : 1280 пикс.
Высота : 545 пикс.
Соотношение сторон : 2,35:1
Соотношение сторон в оригинале : 2,35:1
Частота кадров : 23,976 кадр/сек
Цветовое пространство : YUV
Подвыборка цветности : 4:2:0
Битовая глубина : 8 бит
Тип развёртки : Прогрессивная
Бит/(Пиксели*Кадры) : 0.178
Размер потока : 1,86 Гбайт (85%)
Библиотека кодирования : x264 core 115 r1937 aa21558
Настройки программы : cabac=1 / ref=1 / deblock=1:0:0 / analyse=0x3:0x3 / me=dia / subme=1 / psy=1 / psy_rd=0.00:0.00 / mixed_ref=0 / me_range=16 / chroma_me=1 / trellis=0 / 8x8dct=1 / cqm=0 / deadzone=21,11 / fast_pskip=1 / chroma_qp_offset=0 / threads=3 / sliced_threads=0 / slices=4 / nr=0 / decimate=1 / interlaced=0 / bluray_compat=1 / constrained_intra=0 / bframes=3 / b_pyramid=1 / b_adapt=1 / b_bias=0 / direct=1 / weightb=1 / open_gop=0 / weightp=1 / keyint=24 / keyint_min=1 / scenecut=40 / intra_refresh=0 / rc_lookahead=0 / rc=abr / mbtree=0 / bitrate=2966 / ratetol=1.0 / qcomp=0.60 / qpmin=0 / qpmax=69 / qpstep=4 / vbv_maxrate=15000 / vbv_bufsize=15000 / nal_hrd=vbr / ip_ratio=1.10 / pb_ratio=1.10 / aq=1:1.00

Аудио
Идентификатор : 1
Формат : AC-3
Формат/Информация : Audio Coding 3
Расширение режима : CM (complete main)
Идентификатор кодека : A_AC3
Продолжительность : 1 ч. 32 м.
Вид битрейта : Постоянный
Битрейт : 448 Кбит/сек
Канал(ы) : 6 канала(ов)
Расположение каналов : Front: L C R, Side: L R, LFE
Частота : 48,0 КГц
Битовая глубина : 16 бит
Метод сжатия : С потерями
Размер потока : 295 Мбайт (13%)
Заголовок : Любительский (двухголосый)









реклама партнёра


Вернуться к началу
 Профиль Отправить личное сообщение  
 
   Похожие торренты   Автор   Торрент   Размер 
В этой теме нет новых непрочитанных сообщений. Машина / The Machine [фантастика, триллер, 2013] HDRip, Mvo [лицензия]

Dracon

18 | 2

1.36 ГБ

В этой теме нет новых непрочитанных сообщений. Машина / The Machine [фантастика, триллер, 2013] DVD5, Mvo [лицензия]

Dracon

35 | 7

4.2 ГБ

В этой теме нет новых непрочитанных сообщений. Машина / The Machine [фантастика, триллер, 2013] BDRip 1080p, Mvo+Sub [Лицензия]

Dracon

30 | 2

7.09 ГБ

В этой теме нет новых непрочитанных сообщений. Машина / The Machine [фантастика, триллер, 2013] BDRip 720p, Mvo+Sub [Лицензия]

Dracon

5 | 2

4.33 ГБ

В этой теме нет новых непрочитанных сообщений. Машина времени / The Time Machine [фантастика, боевик, приключения, 2002] BDRip 1080p, Dub+Sub

salma3

284 | 18

5.76 ГБ

В этой теме нет новых непрочитанных сообщений. Машина времени в джакузи 2 / Hot Tub Time Machine 2 (Стив Пинк) [фантастика, комедия, 2015] HDRip, Dub [UNRATED | Лицензия]

slawa4155

1571 | 56

1.37 ГБ

В этой теме нет новых непрочитанных сообщений. Машина времени в джакузи 2 / Hot Tub Time Machine 2 (Стив Пинк) [фантастика, комедия, 2015] HDRip, dub [Чистый звук]

Dracon

590 | 18

1.37 ГБ


Начать новую тему Ответить на тему  [ 1 сообщение ] 




Для Мосгорсуда, Роскомнадзора и рекламодателей:: mosgorsud-torrent[собачка]yandex.ru