Торрент файл
скачать торрент магнет ссылка Добавлен: 25 май 2011, 12:02
Размер: 2.18 ГБ
Сидеров: 7
Личеров: 3
Автор

СообщениеДобавлено: 25 май 2011, 12:02 

Не в сети
Супермодератор
Аватара пользователя
Дата регистрации:
22 май 2010, 11:03
Возраст: 31
Спасибо: 7513 / 13
Сообщения: 49940
Путь домой / The Way Back



Перевод: Любительский (двухголосый), cубтитры: английские
Формат: HDRip-AVC, MKV, H.264, AC3
Страна: США
Режиссер: Питер Уир
Жанр: драма, приключения
Продолжительность: 02:13:11
Год выпуска: 2010

В ролях: Драгош Букур, Колин Фаррелл, Эд Харрис, Александру Поточан, Сирша Ронан, Густаф Скарсгард, Марк Стронг, Джим Стерджесс, Себастьян Урзендовский, Захари Бахаров

Описание: 1940 год, Сибирь. Самый страшный лагерь для политзаключенных. Небольшая группа осужденных смогла вырваться из этого страшного места. Теперь их ждет путь домой. Долгий, очень трудный, минуя пустыни и горы, сталкиваясь с дикими животными и незнакомыми людьми. Они идут домой из последних сил, надеясь на встречу со своими близкими.



Видео: 1024 x 436 (2.349), 23.976 fps, AVC, High@L3.2, х264, ~ 1 578 Kbps Kbps, 0.147 bit/pixel
Аудио: Русский: 48 kHz, AC3 Dolby Digital, 3/2 (L,C,R,l,r) + LFE ch, ~384 kbps [Любительский (двухголосый)]
Аудио: Английский: 48 kHz, AC3 Dolby Digital, 3/2 (L,C,R,l,r) + LFE ch, ~384 kbps [Оригинал]

General
Unique ID: 239081151642548816497982040522626954547 (0xB3DD5ADB4BDED423A90D6AD4C55BF533)
Complete name: E:\РЕЛИЗЫ\Все релизы 12\put_domoi_[tfile.ru].mkv
Format: Matroska
File size: 2.18 GiB
Duration: 2h 13mn
Overall bit rate: 2 348 Kbps
Movie name: Put domoj (2010) Release by Vaippp [OpenSharing Team]
Encoded date: UTC 2011-04-05 07:19:58
Writing application: mkvmerge v4.6.0 ('Still Crazy After All These Years') сборка от Mar 10 2011 02:50:32
Writing library: libebml v1.2.0 + libmatroska v1.1.0

Video
ID: 1
Format: AVC
Format/Info: Advanced Video Codec
Format profile: High@L3.2
Format settings, CABAC: Yes
Format settings, ReFrames: 11 frames
Codec ID: V_MPEG4/ISO/AVC
Duration: 2h 13mn
Bit rate: 1 578 Kbps
Width: 1 024 pixels
Height: 436 pixels
Display aspect ratio: 2.35:1
Frame rate: 23.976 fps
Color space: YUV
Chroma subsampling: 4:2:0
Bit depth: 8 bits
Scan type: Progressive
Bits/(Pixel*Frame): 0.147
Stream size: 1.43 GiB (65%)
Title: HDRip by Vaippp
Writing library: x264 core 112 r1867 22bfd31
Encoding settings: cabac=1 / ref=11 / deblock=1:-2:-1 / analyse=0x3:0x133 / me=umh / subme=9 / psy=1 / psy_rd=1.05:0.15 / mixed_ref=1 / me_range=32 / chroma_me=1 / trellis=2 / 8x8dct=1 / cqm=0 / deadzone=21,11 / fast_pskip=0 / chroma_qp_offset=-3 / threads=4 / sliced_threads=0 / nr=0 / decimate=1 / interlaced=0 / constrained_intra=0 / bframes=8 / b_pyramid=2 / b_adapt=2 / b_bias=0 / direct=3 / weightb=1 / open_gop=0 / weightp=2 / keyint=250 / keyint_min=23 / scenecut=40 / intra_refresh=0 / rc=2pass / mbtree=0 / bitrate=1578 / ratetol=1.0 / qcomp=0.60 / qpmin=10 / qpmax=51 / qpstep=4 / cplxblur=20.0 / qblur=0.5 / ip_ratio=1.40 / pb_ratio=1.30 / aq=1:0.90 / zones=180980,191612,q=35
Language: English

Audio #1
ID: 2
Format: AC-3
Format/Info: Audio Coding 3
Mode extension: CM (complete main)
Codec ID: A_AC3
Duration: 2h 13mn
Bit rate mode: Constant
Bit rate: 384 Kbps
Channel(s): 6 channels
Channel positions: Front: L C R, Side: L R, LFE
Sampling rate: 48.0 KHz
Bit depth: 16 bits
Compression mode: Lossy
Stream size: 366 MiB (16%)
Title: DVO
Language: Russian

Audio #2
ID: 3
Format: AC-3
Format/Info: Audio Coding 3
Mode extension: CM (complete main)
Codec ID: A_AC3
Duration: 2h 13mn
Bit rate mode: Constant
Bit rate: 384 Kbps
Channel(s): 6 channels
Channel positions: Front: L C R, Side: L R, LFE
Sampling rate: 48.0 KHz
Bit depth: 16 bits
Compression mode: Lossy
Stream size: 366 MiB (16%)
Title: Original
Language: English

Text
ID: 4
Format: UTF-8
Codec ID: S_TEXT/UTF8
Codec ID/Info: UTF-8 Plain Text
Language: English




























реклама партнёра


Вернуться к началу
 Профиль Отправить личное сообщение  
 
   Похожие торренты   Автор   Торрент   Размер 
В этой теме нет новых непрочитанных сообщений. Путь домой / Way Back Home (Пан Ын Чжин / Pang Eun Jin) [2013г., драма, HDRip] avo

Alfredovich

13 | 2

1.37 ГБ

В этой теме нет новых непрочитанных сообщений. Долгий путь домой [01-09 из 16] (Ольга Доброва-Куликова) [2014, Драма, криминал, IPTVRip]

Nickolas3435

14 | 7

5.16 ГБ

В этой теме нет новых непрочитанных сообщений. Долгий путь домой [01-16 из 16] (Ольга Доброва-Куликова) [Драма, криминал, 2014] HDTVRip

Dracon

147 | 61

11.35 ГБ

В этой теме нет новых непрочитанных сообщений. Долгий путь домой [01-16 из 16] (Ольга Доброва-Куликова) [Драма, криминал, 2014] HDTV 1080i

Dracon

75 | 53

55.99 ГБ

В этой теме нет новых непрочитанных сообщений. Летите домой / Fly Away Home [драма, приключения, семейный, 1996] HDRip, Dub

salma3

8 | 3

1.46 ГБ

В этой теме нет новых непрочитанных сообщений. Лепрекон 6: Домой / Leprechaun: Back 2 tha Hood [ужасы, фэнтези, комедия, 2003] BDRip, Dvo

salma3

24 | 4

1.45 ГБ

В этой теме нет новых непрочитанных сообщений. Лепрекон 6: Домой / Leprechaun: Back 2 tha Hood [ужасы, фэнтези, комедия, 2003] BDRemux, Dvo+Sub

salma3

1 | 3

18.79 ГБ


Начать новую тему Ответить на тему  [ 1 сообщение ] 




Для Мосгорсуда, Роскомнадзора и рекламодателей:: mosgorsud-torrent[собачка]yandex.ru