Торрент файл
скачать торрент магнет ссылка Добавлен: 25 май 2011, 12:01
Размер: 744.46 МБ
Сидеров: 131
Личеров: 10
Автор

СообщениеДобавлено: 25 май 2011, 12:01 

Не в сети
Супермодератор
Аватара пользователя
Дата регистрации:
22 май 2010, 11:03
Возраст: 31
Спасибо: 7509 / 13
Сообщения: 49940
127 Часов / 127 Hours


Перевод: Профессиональный (полное дублирование)
Субтитры:отсутствуют
Формат: LowHDRip-AVC, MKV, H.264, AAC

Страна: США, Великобритания
Режиссер: Дэнни Бойл
Жанр: триллер, драма, приключения, биография

Продолжительность: 01:33:41
Год выпуска: 2010

В ролях: Джеймс Франко, Кейт Мара, Эмбер Тэмблин, Шон Ботт, Колман Стингер, Трит Уильямс, Джон Лоуренс, Кейт Бёртон, Бэйли Мишель, Джонсон Ребекка С. Олсон

Описание: Неудержимый скалолаз и любитель спрятанных в каньонах пещер в очередной раз в одиночестве едет в горы и оказывается в смертельной ловушке. 127 часов без еды, без питья и практически без надежды выжить. Тут-то и проявляется сила характера…







Видео: 696x376 (16:9), 23.976 fps, MPEG-4 AVC (x264) High@L3.0 ~986 kbps avg, 0.16 bit/pixel
Аудио: 48 kHz, AC-3, 6 ch, ~128.00 kbps avg

Рип от: TswetkOFF

Релиз-Группа:




General
Unique ID: 62758984613049989081131568380124075018 (0x2F36F0D69A04BA7E7D306E3900BC140A)
Complete name: D:\Films\127_hours_[tfile.ru].mkv
Format: Matroska
File size: 744 MiB
Duration: 1h 33mn
Overall bit rate: 1 111 Kbps
Movie name: 127 Hours (2010) - Release for HDCLUB
Writing application: Lavf53.0.3
Writing library: Lavf53.0.3

Video
ID: 1
Format: AVC
Format/Info: Advanced Video Codec
Format profile: High@L3.0
Format settings, CABAC: Yes
Format settings, ReFrames: 3 frames
Format settings, GOP: M=1, N=32
Codec ID: V_MPEG4/ISO/AVC
Duration: 1h 33mn
Bit rate: 986 Kbps
Width: 696 pixels
Height: 376 pixels
Display aspect ratio: 16:9
Original display aspect ratio: 16:9
Frame rate mode: Variable
Frame rate: 23.976 fps
Color space: YUV
Chroma subsampling: 4:2:0
Bit depth: 8 bits
Scan type: Progressive
Bits/(Pixel*Frame): 0.157
Stream size: 644 MiB (86%)
Title: Release for HDCLUB
Writing library: x264 core 115 r1947M b5a8ad7
Encoding settings: cabac=1 / ref=3 / deblock=1:0:0 / analyse=0x3:0x133 / me=hex / subme=7 / psy=1 / psy_rd=1.00:0.20 / mixed_ref=1 / me_range=16 / chroma_me=1 / trellis=1 / 8x8dct=1 / cqm=0 / deadzone=21,11 / fast_pskip=1 / chroma_qp_offset=-3 / threads=2 / sliced_threads=0 / nr=0 / decimate=1 / interlaced=0 / bluray_compat=0 / constrained_intra=0 / bframes=3 / b_pyramid=1 / b_adapt=2 / b_bias=0 / direct=3 / weightb=1 / open_gop=0 / weightp=2 / keyint=230 / keyint_min=23 / scenecut=40 / intra_refresh=0 / rc_lookahead=40 / rc=abr / mbtree=1 / bitrate=986 / ratetol=1.0 / qcomp=0.60 / qpmin=10 / qpmax=51 / qpstep=4 / ip_ratio=1.40 / aq=1:1.00
Language: English / English

Audio
ID: 2
Format: AC-3
Format/Info: Audio Coding 3
Mode extension: CM (complete main)
Codec ID: A_AC3
Duration: 1h 33mn
Bit rate mode: Constant
Bit rate: 128 Kbps
Channel(s): 6 channels
Channel positions: Front: L C R, Side: L R, LFE
Sampling rate: 48.0 KHz
Bit depth: 16 bits
Compression mode: Lossy
Stream size: 85.8 MiB (12%)
Title: DTS 5.1ch 755 kbps - Дубляж, R5
Language: English / Russian
















реклама партнёра


Вернуться к началу
 Профиль Отправить личное сообщение  
 
   Похожие торренты   Автор   Торрент   Размер 
В этой теме нет новых непрочитанных сообщений. Стив Джобс / Steve Jobs (Дэнни Бойл) [драма, биография, 2015] HDRip, dub [Чистый звук]

Dracon

4644 | 236

1.45 ГБ

В этой теме нет новых непрочитанных сообщений. 13 часов: Тайные солдаты Бенгази / 13 Hours [боевик, триллер, драма, военный, 2016] DVD5, Dub

salma3

3 | 1

4.37 ГБ

В этой теме нет новых непрочитанных сообщений. 13 часов: Тайные солдаты Бенгази / 13 Hours [боевик, триллер, драма, военный, 2016] DVD9, Dub [Лицензия]

salma3

33 | 10

7.35 ГБ

В этой теме нет новых непрочитанных сообщений. Транс / Trance (Дэнни Бойл) [2013, триллер, криминал, драма, BDRip] DUB

Nickolas3435

136 | 8

1.46 ГБ

В этой теме нет новых непрочитанных сообщений. 13 часов: Тайные солдаты Бенгази / 13 Hours: The Secret Soldiers of Benghazi [Боевик, триллер, драма, военный, 2016] Blu-Ray, Dub [Лицензия]

salma3

71 | 40

40.38 ГБ

В этой теме нет новых непрочитанных сообщений. 13 часов: Тайные солдаты Бенгази / 13 Hours: The Secret Soldiers of Benghazi [боевик, триллер, драма, военный, 2016] BDRip-AVC, Dub+Sub

salma3

44 | 3

1.46 ГБ

В этой теме нет новых непрочитанных сообщений. 13 часов: Тайные солдаты Бенгази / 13 Hours: The Secret Soldiers of Benghazi [боевик, триллер, драма, военный, 2016] HDRip, Dub [чистый звук]

salma3

150 | 3

2.05 ГБ


Начать новую тему Ответить на тему  [ 1 сообщение ] 




Для Мосгорсуда, Роскомнадзора и рекламодателей:: mosgorsud-torrent[собачка]yandex.ru