Торрент файл
скачать торрент магнет ссылка Добавлен: 25 май 2011, 11:25
Размер: 1.79 ГБ
Сидеров: 12
Личеров: 3
Автор

СообщениеДобавлено: 25 май 2011, 11:25 

Не в сети
Супермодератор
Аватара пользователя
Дата регистрации:
22 май 2010, 11:03
Возраст: 31
Спасибо: 7509 / 13
Сообщения: 49940
Телохранитель / London Boulevard



Перевод: Профессиональный (полное дублирование), cубтитры: Английские
Формат: HDRip-AVC, MKV, H.264, AC3
Страна: США, Великобритания
Режиссер: Уильям Монахэн
Жанр: мелодрама, криминал
Продолжительность: 01:43:01
Год выпуска: 2010

В ролях: Колин Фаррелл, Кира Найтли, Рэй Уинстон, Стивен Грэм, Анна Фрил, Дэвид Тьюлис, Офелия Ловибонд, Джейми Кэмпбелл Бауэр, Бен Чаплин, Эдди Марсан...

Описание: Пытаясь покончить с криминальным прошлым Митч, знакомится с кинозвездой Шарлоттой, которая прячется в своем доме от толпы репортеров и фотографов. Красота и ранимость актрисы покоряют Митча, и он становится ее телохранителем, защищая Шарлотту от агрессивных папарацци, преследователей и прочих негодяев. Но преступный мир так легко его не отпустит…

[/field]

Видео: 1 280x696 (1.839), 23.976 fps, AVCHigh@L3.1 , х264, ~ 2 063 kbps, 0.097 bit/pixel
Аудио: 48 kHz, AC3 Dolby Digital, 3/2 (L,C,R,l,r) + LFE ch, ~384 kbps

лицензия
General
Unique ID: 230647022421125039393449053438441397344 (0xAD85002E4C6E1E4B8074B3A2A35B9C60)
Complete name: E:\РЕЛИЗЫ\Все релизы 11\telohranitel_[tfile.ru].mkv
Format: Matroska
File size: 1.79 GiB
Duration: 1h 42mn
Overall bit rate: 2 497 Kbps
Movie name: Телохранитель / London Boulevard (2010) BDRip 720p
Encoded date: UTC 2011-03-19 03:00:34
Writing application: mkvmerge v2.3.0 ('Freak U') built on Sep8 2008 18:32:16
Writing library: libebml v0.7.7 + libmatroska v0.8.1

Video
ID: 1
Format: AVC
Format/Info: Advanced Video Codec
Format profile: High@L3.1
Format settings, CABAC: Yes
Format settings, ReFrames: 4 frames
Codec ID: V_MPEG4/ISO/AVC
Duration: 1h 42mn
Bit rate: 2 063 Kbps
Width: 1 280 pixels
Height: 696 pixels
Display aspect ratio: 16:9
Frame rate: 23.976 fps
Color space: YUV
Chroma subsampling: 4:2:0
Bit depth: 8 bits
Scan type: Progressive
Bits/(Pixel*Frame): 0.097
Stream size: 1.48 GiB (83%)
Language: English

Audio
ID: 2
Format: AC-3
Format/Info: Audio Coding 3
Mode extension: CM (complete main)
Codec ID: A_AC3
Duration: 1h 42mn
Bit rate mode: Constant
Bit rate: 384 Kbps
Channel(s): 6 channels
Channel positions: Front: L C R, Side: L R, LFE
Sampling rate: 48.0 KHz
Bit depth: 16 bits
Compression mode: Lossy
Delay relative to video: 5ms
Stream size: 282 MiB (15%)
Language: Russian

Text #1
ID: 3
Format: UTF-8
Codec ID: S_TEXT/UTF8
Codec ID/Info: UTF-8 Plain Text
Language: English

Text #2
ID: 4
Format: UTF-8
Codec ID: S_TEXT/UTF8
Codec ID/Info: UTF-8 Plain Text
Language: English












реклама партнёра


Вернуться к началу
 Профиль Отправить личное сообщение  
 
   Похожие торренты   Автор   Торрент   Размер 
В этой теме нет новых непрочитанных сообщений. На панели / Boulevard [драма, криминал, 1994] DVDRip, Avo

salma3

130 | 23

784.32 МБ

В этой теме нет новых непрочитанных сообщений. Бульвар / Boulevard (Дито Монтиель) [драма, 2014] HDRip, mvo

Dracon

662 | 18

1.46 ГБ

В этой теме нет новых непрочитанных сообщений. Rock Boulevard - Rock Boulevard [1990, Melodic Hard Rock, MP3]

PriZraK

0 | 1

72.18 МБ

В этой теме нет новых непрочитанных сообщений. Телохранитель 4 [16 из 16] [Детектив, криминал, 2012] SATRip

iopuk60

0 | 2

8.68 ГБ

В этой теме нет новых непрочитанных сообщений. Старый телохранитель / Wo de te gong ye ye [боевик, 2016] HDRip, Avo

salma3

330 | 27

1.46 ГБ

В этой теме нет новых непрочитанных сообщений. Телохранитель / Maryland (Алис Винокур) [триллер, драма, 2015] HDRip, mvo [iTunes]

Dracon

2598 | 130

1.46 ГБ

В этой теме нет новых непрочитанных сообщений. Телохранитель / The bodyguard (боевик, экшн, 2016) HDRip-AVC от Batafurai Team и SOUND-GROUP | L2

marya111

1470 | 59

1.47 ГБ


Начать новую тему Ответить на тему  [ 1 сообщение ] 




Для Мосгорсуда, Роскомнадзора и рекламодателей:: mosgorsud-torrent[собачка]yandex.ru