Торрент файл
скачать торрент магнет ссылка Добавлен: 25 май 2011, 11:24
Размер: 2.23 ГБ
Сидеров: 3
Личеров: 5
Автор

СообщениеДобавлено: 25 май 2011, 11:24 

Не в сети
Супермодератор
Аватара пользователя
Дата регистрации:
22 май 2010, 11:03
Возраст: 31
Спасибо: 7513 / 13
Сообщения: 49940
Пророк / A Prophet / Un prophete


Перевод: Профессиональный (полное дублирование), cубтитры: отсутствуют
Формат: HDRip, MKV, H.264, AC3

Страна: Франция, Италия
Режиссер: Жак Одиар
Жанр: драма, криминал

Продолжительность: 02:35:04
Год выпуска: 2009

В ролях: Тахар Рахим, Нильс Ареструп, Адель Беншериф, Хайсем Якуби, Реда Катеб, Жан-Филипп Риччи, Жиль Коэн, Антуан Баслер, Лейла Бекти

Описание: Приговоренный к шести годам тюрьмы, Малик Эль Джебена кажется на фоне других заключенных самым «зеленым» и самым уязвимым. Ему 19 лет. Он не умеет ни писать, ни читать. За стенами тюрьмы у него нет близких.
Все меняется, когда Лучано, лидер авторитетной банды корсиканцев, решает поручить Малику ряд опасных и рискованных миссий… Выполнение любой из этих «миссий» под прессингом корсиканцев могло бы сломить кого угодно, но не его. Каждое задание закаляет Малика. Он быстро учится жизни в новом для себя мире. Завоевывает доверие корсиканцев и мусульман. И вскоре начинает вынашивать собственные дерзкие планы…







Видео: 1280x688 (1.86:1), 24 fps, MPEG-4 AVC (x264) High@L4.1 ~ 1 677 kbps avg, 0.08 bit/pixel
Аудио: 48 kHz, AC-3, 6 ch, ~ 384 kbps avg


General
Unique ID: 209236609515800758234390382967199155001 (0x9D6981530216BB03ADD397FDCD6CC339)
Complete name: D:\КИНО\un_prophete_[tfile.ru].mkv
Format: Matroska
File size: 2.23 GiB
Duration: 2h 35mn
Overall bit rate: 2 056 Kbps
Movie name: Rip by Tembr
Encoded date: UTC 2011-03-31 20:43:19
Writing application: mkvmerge v3.2.0 ('Beginnings') built on Feb 12 2010 16:46:17
Writing library: libebml v0.7.9 + libmatroska v0.8.1

Video
ID: 1
Format: AVC
Format/Info: Advanced Video Codec
Format profile: High@L4.1
Format settings, CABAC: Yes
Format settings, ReFrames: 3 frames
Codec ID: V_MPEG4/ISO/AVC
Duration: 2h 35mn
Bit rate mode: Variable
Bit rate: 1 677 Kbps
Maximum bit rate: 15.0 Mbps
Width: 1 280 pixels
Height: 688 pixels
Display aspect ratio: 1.860
Frame rate: 24.000 fps
Color space: YUV
Chroma subsampling: 4:2:0
Bit depth: 8 bits
Scan type: Progressive
Bits/(Pixel*Frame): 0.079
Stream size: 1.77 GiB (79%)
Title: Пророк.[NoLimits-Team.ru]
Writing library: x264 core 114 r1913 5fd3dce
Encoding settings: cabac=1 / ref=1 / deblock=1:0:0 / analyse=0x3:0x3 / me=dia / subme=1 / psy=1 / psy_rd=0.00:0.00 / mixed_ref=0 / me_range=16 / chroma_me=1 / trellis=0 / 8x8dct=1 / cqm=0 / deadzone=21,11 / fast_pskip=1 / chroma_qp_offset=0 / threads=3 / sliced_threads=0 / slices=4 / nr=0 / decimate=1 / interlaced=0 / constrained_intra=0 / bframes=3 / b_pyramid=1 / b_adapt=1 / b_bias=0 / direct=1 / weightb=1 / open_gop=0 / weightp=1 / keyint=24 / keyint_min=1 / scenecut=40 / intra_refresh=0 / rc_lookahead=0 / rc=abr / mbtree=0 / bitrate=1677 / ratetol=1.0 / qcomp=0.60 / qpmin=0 / qpmax=69 / qpstep=4 / vbv_maxrate=15000 / vbv_bufsize=15000 / nal_hrd=vbr / ip_ratio=1.10 / pb_ratio=1.10 / aq=1:1.00
Language: English

Audio
ID: 2
Format: AC-3
Format/Info: Audio Coding 3
Mode extension: CM (complete main)
Codec ID: A_AC3
Duration: 2h 35mn
Bit rate mode: Constant
Bit rate: 384 Kbps
Channel(s): 6 channels
Channel positions: Front: L C R, Side: L R, LFE
Sampling rate: 48.0 KHz
Bit depth: 16 bits
Compression mode: Lossy
Stream size: 426 MiB (19%)
Title: Дубляж
Language: Russian










реклама партнёра


Вернуться к началу
 Профиль Отправить личное сообщение  
 
   Похожие торренты   Автор   Торрент   Размер 
В этой теме нет новых непрочитанных сообщений. Пророк смерти / The Prophet's Game [триллер, 2000] DVDRip, Avo

salma3

185 | 482

1.03 ГБ

В этой теме нет новых непрочитанных сообщений. Steel Prophet - Omniscient [2014, Power Metal, MP3]

PriZraK

0 | 1

128.52 МБ

В этой теме нет новых непрочитанных сообщений. Где-то там / Elsewhere [триллер, драма, криминал, 2009] HDRip, Dvo

salma3

15 | 2

1.45 ГБ

В этой теме нет новых непрочитанных сообщений. Рэйн Фолл / Rain Fall [боевик, триллер, драма, криминал, 2009] HDRip, Dvo

salma3

0 | 2

1.46 ГБ

В этой теме нет новых непрочитанных сообщений. Плохой лейтенант / The Bad Lieutenant: Port of Call New Orleans [Драма, криминал, 2009] HDRip, Mvo [Лицензия]

salma3

2 | 2

1.46 ГБ

В этой теме нет новых непрочитанных сообщений. Devastating Enemy - The Fallen Prophet [2011, Melodic Death Metal, Metalcore, Melodic Deathcore, MP3]

PriZraK

0 | 1

72.93 МБ

В этой теме нет новых непрочитанных сообщений. Налёт / Braquo [S01-02] [Триллер, криминал, 2009-2011] HDRip, Mvo [Amedia]

salma3

104 | 14

12.73 ГБ


Начать новую тему Ответить на тему  [ 1 сообщение ] 




Для Мосгорсуда, Роскомнадзора и рекламодателей:: mosgorsud-torrent[собачка]yandex.ru