Торрент файл
скачать торрент магнет ссылка Добавлен: 25 май 2011, 10:50
Размер: 2.18 ГБ
Сидеров: 41
Личеров: 10
Автор

СообщениеДобавлено: 25 май 2011, 10:50 

Не в сети
Супермодератор
Аватара пользователя
Дата регистрации:
22 май 2010, 11:03
Возраст: 31
Спасибо: 7509 / 13
Сообщения: 49940
Идеальный незнакомец / Perfect Stranger


Перевод: Профессиональный (полное дублирование), Субтитры: Отсутствуют

Формат: HDRip, MKV, MPEG4, AC3
Страна: США
Режиссер: Джеймс Фоули / James Foley
Жанр: Триллер, детектив
Продолжительность: 01:48:58
Год выпуска: 2007

В ролях: Брюс Уиллис, Холли Берри, Джованни Рибизи, Гари Дурдэн, Джейсон Антун, Ники Линн Эйкокс, Патти Д'Арбанвиль, Синди Лоэбе, Ричард Портноу,Тамара Фелдман и др.


Описание: Журналистка ведущей нью-йоркской газеты Руана Прайс начинает расследование убийства своего друга детства. Нити преступления приводят ее в офис мультимиллионера Харрисона Хилла, владеющего крупным рекламным агентством. Копаясь в его жизни, Руана находит улики, и теперь ей предстоит посредством знакомства on-line заманить Хилла в суд.


Рейтинг Кинопоиск.RU: 6.885
Рейтинг IMDB: 5.5/10
Рейтинг MPAA: R

Видео: 1280x528 (2.35:1), MPEG4 AVC (x264) ~2 413 kbps avg,0.146 bit/pixel
Аудио: 48 kHz, AC3, 6 ch, 448.00 kbps




General
Complete name: E:\Кино\ТРИЛЛЕРЫ\Perfect.Stranger.mkv
Format: Matroska
File size: 2.18 GiB
Duration: 1h 48mn
Overall bit rate: 2 863 Kbps
Encoded date: UTC 2010-05-25 21:43:32
Writing application: mkvmerge v2.5.3 ('Boogie') built on Mar7 2009 15:00:41
Writing library: libebml v0.7.7 + libmatroska v0.8.1

Video
ID: 1
Format: AVC
Format/Info: Advanced Video Codec
Format profile: High@L4.1
Format settings, CABAC: Yes
Format settings, ReFrames: 3 frames
Muxing mode: Container profile=Unknown@4.1
Codec ID: V_MPEG4/ISO/AVC
Duration: 1h 48mn
Bit rate: 2 413 Kbps
Width: 1 280 pixels
Height: 528 pixels
Display aspect ratio: 2.40:1
Frame rate: 23.976 fps
Color space: YUV
Chroma subsampling: 4:2:0
Bit depth: 8 bits
Scan type: Progressive
Bits/(Pixel*Frame): 0.149
Stream size: 1.79 GiB (82%)
Writing library: x264 core 80 r1376M 3feaec2
Encoding settings: cabac=1 / ref=3 / deblock=1:-3:-3 / analyse=0x3:0x133 / me=hex / subme=9 / psy=1 / psy_rd=0.9:0.0 / mixed_ref=1 / me_range=16 / chroma_me=1 / trellis=2 / 8x8dct=1 / cqm=0 / deadzone=21,11 / fast_pskip=1 / chroma_qp_offset=-2 / threads=3 / sliced_threads=0 / nr=0 / decimate=1 / mbaff=0 / constrained_intra=0 / bframes=6 / b_pyramid=0 / b_adapt=2 / b_bias=0 / direct=1 / wpredb=1 / wpredp=2 / keyint=250 / keyint_min=25 / scenecut=40 / rc_lookahead=40 / rc=2pass / mbtree=1 / bitrate=2413 / ratetol=1.0 / qcomp=0.60 / qpmin=10 / qpmax=51 / qpstep=4 / cplxblur=20.0 / qblur=0.5 / ip_ratio=1.40 / aq=1:1.00
Language: English

Audio
ID: 2
Format: AC-3
Format/Info: Audio Coding 3
Mode extension: CM (complete main)
Codec ID: A_AC3
Duration: 1h 48mn
Bit rate mode: Constant
Bit rate: 448 Kbps
Channel(s): 6 channels
Channel positions: Front: L C R, Side: L R, LFE
Sampling rate: 48.0 KHz
Stream size: 349 MiB (16%)
*Съемки картины начались 31 января 2006 года.
* Было снято три разных концовки фильма, в каждой из которых убийцами оказывались разные люди.
* Это первая картина, снятая на «ground zero», месте, на котором находились Башни-Близнецы.
* В оригинале слоган картины гласит: «Насколько далеко ты зайдешь, чтобы сохранить тайну?».
* Фильм буквально напичкан product placement - и Reebok, и Heineken, и Victoria`s Secret.
* Изначально местом действия был выбран Новый Орлеан, но из-за последствий урагана Катрина съемки перенесли в Нью-Йорк.







реклама партнёра


Вернуться к началу
 Профиль Отправить личное сообщение  
 
   Похожие торренты   Автор   Торрент   Размер 
В этой теме нет новых непрочитанных сообщений. Идеальный незнакомец / Perfect Stranger [триллер, драма, криминал, 2007] HDRip, Dub

salma3

170 | 12

1.46 ГБ

В этой теме нет новых непрочитанных сообщений. Идеальный незнакомец / Perfect stranger [триллер, драма, криминал, детектив, 2007] BDRip 1080p, Dub+Avo+Sub

salma3

47 | 9

11.03 ГБ

В этой теме нет новых непрочитанных сообщений. Незнакомец / The Stranger (Гильермо Амоедо) [Ужасы, Триллер, Драма, Детектив, 2014] WEB-DLRip, avo

Dracon

3 | 1

1.46 ГБ

В этой теме нет новых непрочитанных сообщений. Идеальный парень / The Perfect Guy (Дэвид М. Розенталь) [триллер, драма, 2015] HDRip, Mvo [iTunes]

Dracon

279 | 37

1.39 ГБ

В этой теме нет новых непрочитанных сообщений. Интимный незнакомец / Intimate Stranger [Триллер, 1991] DVDRip, Mvo

salma3

3 | 5

1.46 ГБ

В этой теме нет новых непрочитанных сообщений. Ночной незнакомец / Чужак в ночи / Stranger by Night [триллер, 1994] DVDRip, Mvo

salma3

7 | 4

1.34 ГБ

В этой теме нет новых непрочитанных сообщений. Когда звонит незнакомец / When a Stranger Calls [ужасы, триллер, 1979] BDRip, Avo

salma3

5 | 5

1.45 ГБ


Начать новую тему Ответить на тему  [ 1 сообщение ] 




Для Мосгорсуда, Роскомнадзора и рекламодателей:: mosgorsud-torrent[собачка]yandex.ru