Торрент файл
скачать торрент магнет ссылка Добавлен: 25 май 2011, 09:01
Размер: 2.15 ГБ
Сидеров: 9
Личеров: 4
Автор

СообщениеДобавлено: 25 май 2011, 09:01 

Не в сети
Супермодератор
Аватара пользователя
Дата регистрации:
22 май 2010, 11:03
Возраст: 31
Спасибо: 7509 / 13
Сообщения: 49940
Мистер Никто / The Traveler

«How do you catch a killer you've already caught?»

Перевод: Профессиональный (многоголосый, закадровый), cубтитры: отсутствуют
Формат: BDRip, MKV, H.264, AC3

Страна: США, Канада
Режиссер: Майкл Обловитц
Жанр: триллер, ужасы

Продолжительность: 01:35:56
Год выпуска: 2010

В ролях: Вэл Килмер, Камилль Салливан, Джон Кассини, Крис Готье, Нельс Леннарсон, Пол МакДжиллион, Дилан Нил, Сьерра Питкин, Захари Трон

Описание: В небольшом городке на ночном дежурстве в Сочельник копы сталкиваются с таинственным человеком под именем Мистер Никто. Позже они понимают, что им угрожает смертельная опасность от мстительного и жестокого убийцы.





Рейтинг MPAA: R

Видео: 1280x546 (2.35:1), 24 fps, AVС MPEG4 ( x264), 3058 Kbps, 0.182 bit/pixel
Аудио: 48 kHz, Dolby AC3, 2 ch, ~192 Kbps avg



Релиз группа

General
Unique ID: 199104284596323079907092966271879168659 (0x95CA1722E16EE0B48512E5E3F11F4293)
Complete name: D:\Films\Mister_nikto_[tfile.ru].mkv
Format: Matroska
File size: 2.15 GiB
Duration: 1h 35mn
Overall bit rate: 3 210 Kbps
Movie name: Rip by Tembr
Encoded date: UTC 2011-01-30 18:46:12
Writing application: mkvmerge v3.2.0 ('Beginnings') built on Feb 12 2010 16:46:17
Writing library: libebml v0.7.9 + libmatroska v0.8.1

Video
ID: 1
Format: AVC
Format/Info: Advanced Video Codec
Format profile: High@L4.1
Format settings, CABAC: Yes
Format settings, ReFrames: 3 frames
Codec ID: V_MPEG4/ISO/AVC
Duration: 1h 35mn
Bit rate mode: Variable
Bit rate: 3 058 Kbps
Maximum bit rate: 17.5 Mbps
Width: 1 280 pixels
Height: 546 pixels
Display aspect ratio: 2.35:1
Original display aspect ratio: 2.35:1
Frame rate: 24.000 fps
Color space: YUV
Chroma subsampling: 4:2:0
Bit depth: 8 bits
Scan type: Progressive
Bits/(Pixel*Frame): 0.182
Stream size: 1.98 GiB (92%)
Title: Mister_nikto_[tfile.ru]
Writing library: x264 core 112 r1867 22bfd31
Encoding settings: cabac=1 / ref=1 / deblock=1:0:0 / analyse=0x3:0x3 / me=dia / subme=1 / psy=1 / psy_rd=0.00:0.00 / mixed_ref=0 / me_range=16 / chroma_me=1 / trellis=0 / 8x8dct=1 / cqm=0 / deadzone=21,11 / fast_pskip=1 / chroma_qp_offset=0 / threads=3 / sliced_threads=0 / slices=4 / nr=0 / decimate=1 / interlaced=0 / constrained_intra=0 / bframes=3 / b_pyramid=1 / b_adapt=1 / b_bias=0 / direct=1 / weightb=1 / open_gop=0 / weightp=1 / keyint=24 / keyint_min=1 / scenecut=40 / intra_refresh=0 / rc_lookahead=0 / rc=abr / mbtree=0 / bitrate=3058 / ratetol=1.0 / qcomp=0.60 / qpmin=0 / qpmax=51 / qpstep=4 / vbv_maxrate=17500 / vbv_bufsize=14500 / nal_hrd=vbr / ip_ratio=1.10 / pb_ratio=1.10 / aq=1:1.00
Language: English

Audio
ID: 2
Format: AC-3
Format/Info: Audio Coding 3
Mode extension: CM (complete main)
Codec ID: A_AC3
Duration: 1h 35mn
Bit rate mode: Constant
Bit rate: 192 Kbps
Channel(s): 2 channels
Channel positions: Front: L R
Sampling rate: 48.0 KHz
Bit depth: 16 bits
Compression mode: Lossy
Stream size: 132 MiB (6%)
Title: Профессиональное (многоголосое) [РенТВ]
Language: Russian














реклама партнёра


Вернуться к началу
 Профиль Отправить личное сообщение  
 
   Похожие торренты   Автор   Торрент   Размер 
В этой теме нет новых непрочитанных сообщений. Любовь моей жизни / Love of my Life (Майкл Бадд) [Ужасы, Триллер, 2013] BDRip 1080p, dvo+sub

Dracon

5 | 2

4.45 ГБ

В этой теме нет новых непрочитанных сообщений. Страдающий амнезией / Amnesiac (Майкл Полиш) [Ужасы, триллер, драма, детектив, 2015] BDRip 720p, dvo+avo

Dracon

383 | 41

4.71 ГБ

В этой теме нет новых непрочитанных сообщений. Уважаемый Мистер Гейси / Dear Mr. Gacy [Драма, криминал, 2010] BDRip 1080p, Mvo+Sub

salma3

2 | 4

7.11 ГБ

В этой теме нет новых непрочитанных сообщений. Привидение в Сайспис Крик / Cypress Creek (Майкл Крам) [Ужасы, комедия, 2014] BDRip, Avo

Dracon

610 | 30

1.46 ГБ

В этой теме нет новых непрочитанных сообщений. Дом с паранормальными явлениями 2 / A Haunted House 2 (Майкл Тиддес) [ужасы, комедия, 2014] BDRip 1080p, dub [iTunes]

Dracon

36 | 2

6.78 ГБ

В этой теме нет новых непрочитанных сообщений. Привидение в Сайспис Крик / Cypress Creek (Майкл Крам) [Ужасы, комедия, 2014] BDRip 1080p, Avo

Dracon

213 | 28

7.88 ГБ

В этой теме нет новых непрочитанных сообщений. Дрожь земли 5: Кровное родство / Tremors 5: Bloodlines (Дон Майкл Пол) [ужасы, фантастика, боевик, 2015] BDRip, Dub [лицензия]

salma3

730 | 31

1.46 ГБ


Начать новую тему Ответить на тему  [ 1 сообщение ] 




Для Мосгорсуда, Роскомнадзора и рекламодателей:: mosgorsud-torrent[собачка]yandex.ru