Торрент файл
скачать торрент магнет ссылка Добавлен: 25 май 2011, 09:00
Размер: 1.46 ГБ
Сидеров: 1
Личеров: 4
Автор

СообщениеДобавлено: 25 май 2011, 09:00 

Не в сети
Супермодератор
Аватара пользователя
Дата регистрации:
22 май 2010, 11:03
Возраст: 31
Спасибо: 7509 / 13
Сообщения: 49940
[b]Телефонная будка / Phone Booth[/b]


Перевод: Профессиональный (полное дублирование) + оригинальная звуковая дорожка
Субтитры:есть, русские
Формат: HDRip-AVC, MKV, H.264, AC3
Страна: США
Режиссер: Джоэл Шумахер
Жанр: триллер, детектив
Продолжительность: 01:21:00
Год выпуска: 2002
В ролях: Колин Фаррелл, Кифер Сазерленд, Форест Уитакер, Рада Митчел, Кэти Холмс, Пола Джей Паркер, Ариан Варинг Эш, Тиа Тексада, Джон Инос III, Ричард Т. Джонс и др.

Описание: Один телефонный звонок может изменить всю жизнь человека или даже оборвать ее. Герой фильма Стью Шеферд становится пленником телефонной будки. Что вы сделаете, если услышите, как в телефонной будке зазвонил телефон? Скорее всего, инстинктивно поднимете трубку, хотя прекрасно знаете, что кто-то просто ошибся номером. Вот и Стью кажется, что на звонок надо обязательно ответить, а в результате он оказывается втянутым в чудовищную игру. «Только положи трубку, и ты — труп», — говорит ему невидимый собеседник.



Видео: 1280x544 (2.35:1), 23.976 fps, V_MPEG4 (x264), High@L3.2, ~1756 kbps Kbps avg, 0.168 bit/pixel
Аудио #1: Русский:48 kHz, AC3 Dolby Digital, 3/2 (L,C,R,l,r) + LFE ch, ~384.00 kbps avg [Профессиональный (полное дублирование)]
Аудио #2: Английский:48 kHz, AC3 Dolby Digital, 3/2 (L,C,R,l,r) + LFE ch, ~384.00 kbps avg [Oригинал]

Format: Matroska
File size: 1.46 GiB
Duration: 1h 21mn
Overall bit rate: 2 575 Kbps
Encoded date: UTC 2009-10-23 14:33:47
Writing application: mkvmerge v2.3.0 ('Freak U') built on Sep8 2008 18:32:16
Writing library: libebml v0.7.7 + libmatroska v0.8.1

Video
ID: 1
Format: AVC
Format/Info: Advanced Video Codec
Format profile: High@L3.2
Format settings, CABAC: Yes
Format settings, ReFrames: 7 frames
Muxing mode: Container profile=Unknown@3.2
Codec ID: V_MPEG4/ISO/AVC
Duration: 1h 20mn
Bit rate: 1 756 Kbps
Nominal bit rate: 1 804 Kbps
Width: 1 280 pixels
Height: 544 pixels
Display aspect ratio: 2.35:1
Frame rate: 23.976 fps
Resolution: 24 bits
Colorimetry: 4:2:0
Scan type: Progressive
Bits/(Pixel*Frame): 0.105
Stream size: 1 017 MiB (68%)
Writing library: x264 core 75 r1259M dd026f2
Encoding settings: cabac=1 / ref=7 / deblock=1:-2:-1 / analyse=0x3:0x113 / me=umh / subme=9 / psy=1 / psy_rd=1.0:0.0 / mixed_ref=1 / me_range=24 / chroma_me=1 / trellis=2 / 8x8dct=1 / cqm=0 / deadzone=21,11 / chroma_qp_offset=-2 / threads=3 / nr=0 / decimate=1 / mbaff=0 / bframes=8 / b_pyramid=0 / b_adapt=2 / b_bias=0 / direct=1 / wpredb=1 / keyint=250 / keyint_min=25 / scenecut=40 / rc_lookahead=30 / rc=2pass / mbtree=1 / bitrate=1804 / ratetol=1.0 / qcomp=0.60 / qpmin=10 / qpmax=51 / qpstep=4 / cplxblur=20.0 / qblur=0.5 / ip_ratio=1.40 / aq=1:1.10 / pulldown=0 / nal_hrd=0
Language: English

Audio #1
ID: 2
Format: AC-3
Format/Info: Audio Coding 3
Codec ID: A_AC3
Duration: 1h 21mn
Bit rate mode: Constant
Bit rate: 384 Kbps
Channel(s): 6 channels
Channel positions: Front: L C R, Surround: L R, LFE
Sampling rate: 48.0 KHz
Stream size: 222 MiB (15%)

Audio #2
ID: 3
Format: AC-3
Format/Info: Audio Coding 3
Codec ID: A_AC3
Duration: 1h 21mn
Bit rate mode: Constant
Bit rate: 384 Kbps
Channel(s): 6 channels
Channel positions: Front: L C R, Surround: L R, LFE
Sampling rate: 48.0 KHz
Stream size: 222 MiB (15%)

Text #1
ID: 4
Format: UTF-8
Codec ID: S_TEXT/UTF8
Codec ID/Info: UTF-8 Plain Text

Text #2
ID: 5
Format: UTF-8
Codec ID: S_TEXT/UTF8
Codec ID/Info: UTF-8 Plain Text












реклама партнёра


Вернуться к началу
 Профиль Отправить личное сообщение  
 
   Похожие торренты   Автор   Торрент   Размер 
В этой теме нет новых непрочитанных сообщений. Подарок / The Gift (Джоэл Эдгертон) [триллер, детектив, 2015] HDRip, dub [чистый звук]

Dracon

1602 | 90

1.47 ГБ

В этой теме нет новых непрочитанных сообщений. Подарок / The Gift (Джоэл Эдгертон) [триллер, детектив, 2015] HDRip, dub [чистый звук]

Dracon

46 | 1

2.04 ГБ

В этой теме нет новых непрочитанных сообщений. Подарок / The Gift (Джоэл Эдгертон) [триллер, детектив, 2015] BDRip 720p, dub [чистый звук]

Dracon

75 | 3

5.75 ГБ

В этой теме нет новых непрочитанных сообщений. Подарок / The Gift (Джоэл Эдгертон / Joel Edgerton) [2015г., Австралия, триллер, детектив, WEBRip 720p] Dub [Звук с TS]

Alfredovich

4159 | 140

3.01 ГБ

В этой теме нет новых непрочитанных сообщений. Anissa Kate / Private Booth (2016) HD 720p

Dile-1

2 | 17

958.41 МБ

В этой теме нет новых непрочитанных сообщений. Лабиринт / Lavirint [триллер, детектив, приключения, 2002] DVDRip, Avo

salma3

70 | 6

1.46 ГБ

В этой теме нет новых непрочитанных сообщений. Сияние / The Glow [Ужасы, триллер, драма, детектив, 2002] DVDRip, Mvo

salma3

148 | 21

1.46 ГБ


Начать новую тему Ответить на тему  [ 1 сообщение ] 




Для Мосгорсуда, Роскомнадзора и рекламодателей:: mosgorsud-torrent[собачка]yandex.ru