Торрент файл
скачать торрент магнет ссылка Добавлен: 25 май 2011, 08:58
Размер: 2.52 ГБ
Сидеров: 19
Личеров: 8
Автор

СообщениеДобавлено: 25 май 2011, 08:58 

Не в сети
Супермодератор
Аватара пользователя
Дата регистрации:
22 май 2010, 11:03
Возраст: 32
Спасибо: 7690 / 13
Сообщения: 49871
Я плюю на ваши могилы / I Spit on Your Grave

Перевод: Любительский (двухголосый), cубтитры: русские
Формат: HDRip, MKV, AVC, AC3
Страна: США
Режиссер: Стивен Р. Монро
Жанр: триллер, криминал
Продолжительность: 01:48:00
Год выпуска: 2010
В ролях: Сара Батлер,Джефф Брэнсон,Эндрю Ховард,Дэниел Фрэнзиси,Родни Истман,Чэд Линдберг,Трейси Уолтер,Молли Миллиган,Саксон Шарбино,Эмбер Даун Лэндрум
Описание: Молодая писательница Дженнифер снимает домик в глухом лесу, чтобы в уединении написать роман. Но издатель не дождется нового бестселлера… Четверо местных отморозков жестоко насилуют девушку и обрекают ее на мучительную смерть. Но Дженнифер сумела выжить и теперь ее единственная цель — месть. И месть эта будет столь ужасной, что бывшие насильники проклянут тот день, когда встретили ее впервые…


Видео: 1120х476 (2,35:1), AVC, MPEG-4 High@L3.1, ~2375 Кбит/сек, 0.186 bit/pixel
Аудио#1:Русский: 48,0 КГц, AC3, 6 канала(ов), ~448 Кбит/сек [Любительский (двухголосый)]
Аудио#2:Английский: 48,0 КГц, AC3, 6 канала(ов), ~448 Кбит/сек [Оригинал]

Присутствует ненормативная лексика


Уникальный идентификатор: 252175591127739457592815206907709365150 (0xBDB74091777D6022A8F6279926561B9E)
Полное имя: D:\Ya_plyuyu_na_vashi_mogily_[tfile.ru].mkv
Формат: Matroska
Размер файла: 2,52 Гбайт
Продолжительность: 1 ч. 48 м.
Общий поток: 3338 Кбит/сек
Название фильма: Я плюю на ваши могилы / I Spit on Your Grave (2010) HDRip-AVC от FireBit
Дата кодирования: UTC 2011-01-27 04:47:23
Программа кодирования: mkvmerge v2.3.0 ('Freak U') built on Sep8 2008 18:32:16
Библиотека кодирования: libebml v0.7.7 + libmatroska v0.8.1

Видео
Идентификатор: 1
Формат: AVC
Формат/Информация: Advanced Video Codec
Профиль формата: High@L3.1
Параметр CABAC формата: Да
Параметр ReFrames формата: 4 кадры
Идентификатор кодека: V_MPEG4/ISO/AVC
Продолжительность: 1 ч. 48 м.
Битрейт: 2375 Кбит/сек
Ширина: 1120 пикс.
Высота: 476 пикс.
Соотношение сторон: 2,35:1
Частота кадров: 23,976 кадр/сек
Цветовое пространство: YUV
Подвыборка цветности: 4:2:0
Битовая глубина: 8 бит
Тип развёртки: Прогрессивная
Бит/(Пиксели*Кадры): 0.186
Размер потока: 1,79 Гбайт (71%)
Заголовок: http://firebit.org
Язык: English

Аудио #1
Идентификатор: 2
Формат: AC-3
Формат/Информация: Audio Coding 3
Расширение режима: CM (complete main)
Идентификатор кодека: A_AC3
Продолжительность: 1 ч. 48 м.
Вид битрейта: Постоянный
Битрейт: 448 Кбит/сек
Канал(ы): 6 канала(ов)
Расположение каналов: Front: L C R, Side: L R, LFE
Частота: 48,0 КГц
Битовая глубина: 16 бит
Метод сжатия: С потерями
Задержка видео: 14 мс.
Размер потока: 346 Мбайт (13%)
Заголовок: http://firebit.org
Язык: Russian

Аудио #2
Идентификатор: 3
Формат: AC-3
Формат/Информация: Audio Coding 3
Расширение режима: CM (complete main)
Идентификатор кодека: A_AC3
Продолжительность: 1 ч. 48 м.
Вид битрейта: Постоянный
Битрейт: 448 Кбит/сек
Канал(ы): 6 канала(ов)
Расположение каналов: Front: L C R, Side: L R, LFE
Частота: 48,0 КГц
Битовая глубина: 16 бит
Метод сжатия: С потерями
Задержка видео: 14 мс.
Размер потока: 346 Мбайт (13%)
Заголовок: http://firebit.org
Язык: English

Текст #1
Идентификатор: 4
Формат: UTF-8
Идентификатор кодека: S_TEXT/UTF8
Идентификатор кодека/Информация: UTF-8 Plain Text
Заголовок: http://firebit.org
Язык: English

Текст #2
Идентификатор: 5
Формат: UTF-8
Идентификатор кодека: S_TEXT/UTF8
Идентификатор кодека/Информация: UTF-8 Plain Text
Заголовок: http://firebit.org
Язык: Russian

Текст #3
Идентификатор: 6
Формат: UTF-8
Идентификатор кодека: S_TEXT/UTF8
Идентификатор кодека/Информация: UTF-8 Plain Text
Заголовок: http://firebit.org
Язык: English










реклама партнёра


Вернуться к началу
 Профиль Отправить личное сообщение  
 
   Похожие торренты   Автор   Торрент   Размер 
В этой теме нет новых непрочитанных сообщений. Я плюю на ваши могилы 3 / I Spit on Your Grave 3 (Р.Д. Браунштейн) [ужасы, триллер, 2015] HDRip, Mvo [iTunes]

Dracon

590 | 23

1.44 ГБ

В этой теме нет новых непрочитанных сообщений. Я плюю на ваши могилы 3 / I Spit on Your Grave 3 (Р.Д. Браунштейн) [ужасы, триллер, 2015] BDRip 1080p, dvo

Dracon

2929 | 219

6.38 ГБ

В этой теме нет новых непрочитанных сообщений. Я плюю на ваши могилы 3 / I Spit on Your Grave 3 (Р.Д. Браунштейн) [ужасы, триллер, 2015] BDRip 720p, Mvo [iTunes]

Dracon

1056 | 57

4.28 ГБ

В этой теме нет новых непрочитанных сообщений. От колыбели до могилы / Cradle 2 the Grave [боевик, триллер, драма, криминал, 2003] BDRip 720p, Mvo

salma3

108 | 32

6.18 ГБ

В этой теме нет новых непрочитанных сообщений. Возвращение живых мертвецов 5: Рейв из могилы / Return of the Living Dead: Rave to the Grave [ужасы, фантастика, комедия, 2005] HDRip-AVC, Dvo

salma3

23 | 16

1.55 ГБ

В этой теме нет новых непрочитанных сообщений. Экзорцизм Молли Хартли / The Exorcism of Molly Hartley (Стивен Р. Монро) [Ужасы, 2015] HDRip, dvo

Dracon

5737 | 208

1.46 ГБ

В этой теме нет новых непрочитанных сообщений. Байки из могилы / From Beyond the Grave [ужасы, фэнтези, 1973] DVDRip, Avo

salma3

48 | 12

1.37 ГБ


Начать новую тему Ответить на тему  [ 1 сообщение ] 




Для Мосгорсуда, Роскомнадзора и рекламодателей:: mosgorsud-torrent[собачка]yandex.ru