Торрент файл
скачать торрент магнет ссылка Добавлен: 25 май 2011, 08:56
Размер: 2.19 ГБ
Сидеров: 22
Личеров: 3
Автор

СообщениеДобавлено: 25 май 2011, 08:56 

Не в сети
Супермодератор
Аватара пользователя
Дата регистрации:
22 май 2010, 11:03
Возраст: 32
Спасибо: 7690 / 13
Сообщения: 49871
Неуловимый / Anthony Zimmer

Перевод: Профессиональный (полное дублирование)
Субтитры:Английские, русские

Формат: HDRip, MKV, H.264, DTS
Страна: Франция, Canal+
Режиссер: Жером Салль
Жанр: Триллер, драма, мелодрама, криминал
Продолжительность: 01:28:50
Год выпуска: 2005

В ролях: Иван Атталь, Софи Марсо, Сами Фрей, Даниэль Ольбрыхский, Жиль Лелуш, Самир Гесми, Арно Дюлери

Описание: Интерпол преследует неуловимого мошенника Энтони Циммера, специализирующегося на отмывании денег для русской мафии. Поймать Циммера стало трудней после того, как он сделал пластическую операцию и полностью изменил свою внешность. Теперь единственная ниточка к мошеннику — обворожительная красотка Кьяра, любовница Циммера. Но Кьяра, понимая, что ее попытаются использовать, заводит интрижку с простоватым парнем Франсуа. Некоторое сходство Франсуа и Циммера является вполне достаточным основанием и для спецслужб, и для мафии, чтобы попытаться убить Франсуа…



Видео: 1024x432 (2.43:1), 23.976 кадр/сек, MPEG-4 AVC, High@L4.1, 2767 Кбит/с, 0.261 бит/пиксель
Аудио: 48 кГц, Digital Theater Systems, 3/2 (L,C,R,l,r) + LFE ch, 755.00 Кбит/с

Доп. информация: Рип с FreeHD (DaRkY) / Blu-Ray Remux 1080p



Релиз от:

Общее
UniqueID/String: 214846588280152623022785574669420498314 (0xA1A1F2A1D448C888B59EBC256D528D8A)
Полное имя: C:\My Downloads\Neulovimiy.2005.x264.BDRip(AVC).ed_rez.mkv
Формат: Matroska
Размер файла: 2,19 Гбайт
Продолжительность: 1 ч. 28 м.
Общий поток: 3524 Кбит/сек
Дата кодирования: UTC 2011-02-19 08:36:36
Программа кодирования: mkvmerge v4.4.0 ('Die Wiederkehr') сборка от Oct 31 2010 21:52:48
Библиотека кодирования: libebml v1.0.0 + libmatroska v1.0.0

Видео
Идентификатор: 1
Формат: AVC
Формат/Информация: Advanced Video Codec
Профиль формата: High@L4.1
Параметр CABAC формата: Да
Параметр ReFrames формата: 8 кадры
Идентификатор кодека: V_MPEG4/ISO/AVC
Продолжительность: 1 ч. 28 м.
Битрейт: 2767 Кбит/сек
Ширина: 1024 пикс.
Высота: 432 пикс.
Соотношение сторон: 2,35:1
Частота кадров: 23,976 кадр/сек
Цветовое пространство: YUV
Подвыборка цветности: 4:2:0
Битовая глубина: 8 бит
Тип развёртки: Прогрессивная
Бит/(Пиксели*Кадры): 0.261
Размер потока: 1,67 Гбайт (77%)
Библиотека кодирования: x264 core 112 r1867 22bfd31
Язык: French

Аудио
Идентификатор: 2
Формат: DTS
Формат/Информация: Digital Theater Systems
Идентификатор кодека: A_DTS
Продолжительность: 1 ч. 28 м.
Вид битрейта: Постоянный
Битрейт: 755 Кбит/сек
Канал(ы): 6 канала(ов)
Расположение каналов: Front: L C R, Side: L R, LFE
Частота: 48,0 КГц
Битовая глубина: 24 бит
Метод сжатия: С потерями
Размер потока: 479 Мбайт (21%)
Заголовок: DUB
Язык: Russian

Текст #1
Идентификатор: 3
Формат: UTF-8
Идентификатор кодека: S_TEXT/UTF8
Идентификатор кодека/Информация: UTF-8 Plain Text
Язык: Russian

Текст #2
Идентификатор: 4
Формат: UTF-8
Идентификатор кодека: S_TEXT/UTF8
Идентификатор кодека/Информация: UTF-8 Plain Text
Язык: English







реклама партнёра


Вернуться к началу
 Профиль Отправить личное сообщение  
 
   Похожие торренты   Автор   Торрент   Размер 
В этой теме нет новых непрочитанных сообщений. CSI: Киберпространство / CSI: Cyber [02x01-06 из 13] (Дермотт Даунс, Эрик Ла Салль, Джефф Т. Томас) [2015, драма, криминал, HDTVRip | HamsterStudio]

Dracon

155 | 109

3.43 ГБ

В этой теме нет новых непрочитанных сообщений. CSI: Киберпространство / CSI: Cyber [02x01-04 из 13] (Дермотт Даунс, Эрик Ла Салль, Джефф Т. Томас) [2015, драма, криминал, HDTVRip | HamsterStudio]

Dracon

134 | 130

2.34 ГБ

В этой теме нет новых непрочитанных сообщений. CSI: Киберпространство / CSI: Cyber [01x01-05 из 13] (Дермотт Даунс, Эрик Ла Салль, Джефф Т. Томас)[2015, драма, криминал, WEB-DLRip | Hamster]

Nickolas3435

70 | 31

2.86 ГБ

В этой теме нет новых непрочитанных сообщений. CSI: Киберпространство / CSI: Cyber [02x01-03 из 13] (Дермотт Даунс, Эрик Ла Салль, Джефф Т. Томас) [2015, драма, криминал, HDTVRip | HamsterStudio]

Nickolas3435

234 | 161

1.78 ГБ

В этой теме нет новых непрочитанных сообщений. CSI: Киберпространство / CSI: Cyber [01x01] (Дермотт Даунс, Эрик Ла Салль, Джефф Т. Томас) [2015, драма, криминал, HDTVRip 720p | Dexter]

Nickolas3435

16 | 2

1.5 ГБ

В этой теме нет новых непрочитанных сообщений. Свидетель / Witness [триллер, драма, мелодрама, криминал, 1985] HDRip, Avo

salma3

30 | 2

1.38 ГБ

В этой теме нет новых непрочитанных сообщений. Одинокие сердца / Lonely Hearts [триллер, мелодрама, драма, криминал, 2006] HDRip, Dvo

salma3

134 | 9

1.45 ГБ


Начать новую тему Ответить на тему  [ 1 сообщение ] 




Для Мосгорсуда, Роскомнадзора и рекламодателей:: mosgorsud-torrent[собачка]yandex.ru