Торрент файл
скачать торрент магнет ссылка Добавлен: 25 май 2011, 08:55
Размер: 2.18 ГБ
Сидеров: 42
Личеров: 3
Автор

СообщениеДобавлено: 25 май 2011, 08:55 

Не в сети
Супермодератор
Аватара пользователя
Дата регистрации:
22 май 2010, 11:03
Возраст: 31
Спасибо: 7509 / 13
Сообщения: 49940
Город воров / The Town

Перевод: Профессиональный (полное дублирование), cубтитры: ЕСТЬ (русские, английские)
Формат: HDRip-AVC, MKV, H.264, AC3
Страна: США
Режиссер: Бен Аффлек
Жанр: Триллер, драма, криминал
Продолжительность: 02:04:00
Год выпуска: 2010

В ролях: Бен Аффлек, Ребекка Холл, Джон Хэмм, Джереми Реннер, Блейк Лайвли, Оуэн Бурк, Титус Уэлливер, Пит Постлетуэйт, Крис Купер, Дэннис МакЛафлин, Корена Чейз

Описание: Дуг МакРэй — один из них, но не стоит «чесать всех под одну гребенку». В отличие от большинства у Дуга был шанс на успех, шанс на то, чтобы не идти по криминальному пути своего отца. Однако вместо этого он стал фактическим лидером группы безжалостных грабителей банков, которые гордятся тем, что берут все, что хотят, и выходят сухими из воды. Единственная семья Дуга — его партнеры по преступному ремеслу, особенно Джем, который, несмотря на всю свою непредсказуемость и дикий нрав, ближе всего к тому, что Дуг понимает под словом «брат». Однако все изменилось после одного дела, в ходе которого Джем ненадолго захватил заложницу — банковского менеджера Клэр Киси. Когда грабители узнают, что девушка живет в самом Чарльстоне, Джем начинает нервничать и решает проверить, как много она успела заметить. Зная, на что способен Джем, Дуг берет это дело на себя. Он разыскивает Клэр, и та даже не представляет, что в их «случайной» встрече нет ничего случайного и что этот очаровательный незнакомец — один из тех людей, которые держали ее жизнь в своих руках всего несколько дней назад.

Рейтинг:

Видео: 1024x432 (2.35:1); 1738 Kbps; 23,976 fps; AVC (x264); High@L4.1; 0.164 bit/pixel
Аудио 1: Russian: 48,0 KHz, AC3; CBR; 6 ch (Front: L C R, Side: L R, LFE)~384 Kbps [Профессиональный (полное дублирование)]
Аудио 2: English: 48,0 KHz, AC3; CBR; 6 ch (Front: L C R, Side: L R, LFE) ~384 Kbps [оригинал]



Видео
Идентификатор: 1
Формат: AVC
Формат/Информация: Advanced Video Codec
Профиль формата: High@L4.1
Параметр CABAC формата: Да
Параметр ReFrames формата: 4 кадров
Режим смешивания: Header stripping
Идентификатор кодека: V_MPEG4/ISO/AVC
Продолжительность: 02:04:00
Битрейт: 1738 Кбит/сек
Ширина: 1024 пикс.
Высота: 432 пикс.
Соотношение сторон: 2,35:1
Частота кадров: 23,976 кадр/сек
Цветовое пространство: YUV
Подвыборка цветности: 4:2:0
Битовая глубина: 8 бит
Тип развёртки: Прогрессивная
Бит/(Пиксели*Кадры): 0.164
Размер потока: 1,47 Гбайт (67%)
Библиотека кодирования: x264 core 112 r1867 22bfd31
Язык: English

Аудио #1
Идентификатор: 2
Формат: AC-3
Формат/Информация: Audio Coding 3
Расширение режима: CM (complete main)
Режим смешивания: Header stripping
Идентификатор кодека: A_AC3
Продолжительность: 2 ч. 4 м.
Вид битрейта: Постоянный
Битрейт: 384 Кбит/сек
Канал(ы): 6 канала(ов)
Расположение каналов: Front: L C R, Side: L R, LFE
Частота: 48,0 КГц
Битовая глубина: 16 бит
Метод сжатия: С потерями
Размер потока: 343 Мбайт (15%)
Заголовок: Dub
Язык: Russian

Аудио #2
Идентификатор: 3
Формат: AC-3
Формат/Информация: Audio Coding 3
Расширение режима: CM (complete main)
Режим смешивания: Header stripping
Идентификатор кодека: A_AC3
Продолжительность: 2 ч. 4 м.
Вид битрейта: Постоянный
Битрейт: 384 Кбит/сек
Канал(ы): 6 канала(ов)
Расположение каналов: Front: L C R, Side: L R, LFE
Частота: 48,0 КГц
Битовая глубина: 16 бит
Метод сжатия: С потерями
Размер потока: 343 Мбайт (15%)
Язык: English

Текст #1
Идентификатор: 4
Формат: UTF-8
Идентификатор кодека: S_TEXT/UTF8
Идентификатор кодека/Информация: UTF-8 Plain Text
Заголовок: Goblin
Язык: Russian

Текст #2
Идентификатор: 5
Формат: UTF-8
Идентификатор кодека: S_TEXT/UTF8
Идентификатор кодека/Информация: UTF-8 Plain Text
Язык: English











реклама партнёра


Вернуться к началу
 Профиль Отправить личное сообщение  
 
   Похожие торренты   Автор   Торрент   Размер 
В этой теме нет новых непрочитанных сообщений. Чумной город / Plague Town [ужасы, триллер, 2008] DVDRip, Mvo

salma3

126 | 6

1.37 ГБ

В этой теме нет новых непрочитанных сообщений. Город, который боялся заката / The Town That Dreaded Sundown [Триллер, ужасы, 2014] WEB-DLRip, avo

Dracon

232 | 7

1.37 ГБ

В этой теме нет новых непрочитанных сообщений. Город, который боялся заката / The Town That Dreaded Sundown [Триллер, ужасы, 2014] WEB-DLRip 720p, avo

Dracon

8 | 2

2.79 ГБ

В этой теме нет новых непрочитанных сообщений. Город ангелов / Angel Town [боевик, драма, 1990] BDRip 720p, 2Avo

salma3

2 | 1

5.41 ГБ

В этой теме нет новых непрочитанных сообщений. Город, который боялся заката / The Town That Dreaded Sundown (Альфонсо Гомез-Рейон) [2014, Ужасы, триллер, BDRemux 1080p] dvo

Dracon

12 | 10

21.29 ГБ

В этой теме нет новых непрочитанных сообщений. Дикий город / Bou Chau Mai Sing (Ринго Лам) [2015, Боевик, Триллер, Криминал, HDRip-AVC] dvo

Dracon

235 | 14

1.46 ГБ

В этой теме нет новых непрочитанных сообщений. Город и деревня / Town & Country [мелодрама, комедия, 2001] DVDRip, Mvo

salma3

70 | 4

1.42 ГБ


Начать новую тему Ответить на тему  [ 1 сообщение ] 




Для Мосгорсуда, Роскомнадзора и рекламодателей:: mosgorsud-torrent[собачка]yandex.ru