Торрент файл
скачать торрент магнет ссылка Добавлен: 25 май 2011, 08:55
Размер: 2.3 ГБ
Сидеров: 0
Личеров: 1
Автор

СообщениеДобавлено: 25 май 2011, 08:55 

Не в сети
Супермодератор
Аватара пользователя
Дата регистрации:
22 май 2010, 11:03
Возраст: 31
Спасибо: 7508 / 13
Сообщения: 49940
4.3.2.1 / 4.3.2.1



Перевод: Профессиональный (Полное дублирование)
Субтитры: Отсутствуют
Формат: BDRip, MKV, H.264, AC3

Страна: Великобритания

Режиссеры: Ноэль Кларк, Марк Дэвис
Слоган: «4 подруги, 3 дня, 2 города, 1 шанс...»
Жанр: Триллер, Криминал
Продолжительность: 01:56:42
Год выпуска: 2010

В ролях: Эмма Робертс, Ноэль Кларк, Тэмсин Эгертон, Офелия Ловибонд, Шаника Уоррен-Мерленд, Джейкоб Андерсон, Николас Бриггс, Натали Бриттон, Линзи Коккер

Описание: В то время как Джоанн приходится работать в супермаркете, остальные поглощены своими приключениями: Кассандра стремится в Нью-Йорк, чтобы встретиться с другом из Интернета; Кэррис борется за права женщин, а Шэннон направляется на встречу с отцом. Но сама судьба сталкивает их отдельные миры и друг друга. У 4-х девушек всего 3 дня, которые они никогда не забудут и 2 города, которые они посетят, то есть… если они выживут.





Видео: 1280*544(2,35:1), 23,976 fps, MPEG4/ISO/AVC , High@L4.1, х264, ~ 2 380 Kbps avg, 0.143 bit/pixel
Аудио: 48,0 KHz,AC3 LCR, L,R, LFE,6 channels,384 Kbps

Релиз группы:

Доп. информация: Рип с Blu-Ray 720p

D:\Films\4.3.2.1.2010.BDRip.720p.mkv
General
Complete name : D:\Films\4.3.2.1.2010.BDRip.720p.mkv
Format : Matroska
File size : 2.30 GiB
Duration : 1h 56mn
Overall bit rate : 2 820 Kbps
Movie name : Rip by victordan 95
Encoded date : UTC 2011-02-20 06:40:28
Writing application : mkvmerge v3.2.0 ('Beginnings') built on Feb 12 2010 16:46:17
Writing library : libebml v0.7.9 + libmatroska v0.8.1
Video #1
ID : 1
Format : AVC
Format/Info : Advanced Video Codec
Format profile : High@L4.1
Format settings, CABAC : Yes
Format settings, ReFrames : 5 frames
Muxing mode : Container profile=Unknown@4.1
Codec ID : V_MPEG4/ISO/AVC
Duration : 1h 56mn
Bit rate : 2 380 Kbps
Nominal bit rate : 2 438 Kbps
Width : 1 280 pixels
Height : 544 pixels
Display aspect ratio : 2.35:1
Original display aspect ratio : 2.35:1
Frame rate : 23.976 fps
Resolution : 24 bits
Colorimetry : 4:2:0
Scan type : Progressive
Bits/(Pixel*Frame) : 0.143
Stream size : 1.94 GiB (84%)
Writing library : x264 core 112 r1867 22bfd31
Encoding settings : cabac=1 / ref=6 / deblock=1:0:0 / analyse=0x3:0x113 / me=umh / subme=8 / psy=1 / psy_rd=1.00:0.00 / mixed_ref=1 / me_range=16 / chroma_me=1 / trellis=1 / 8x8dct=1 / cqm=0 / deadzone=21,11 / fast_pskip=1 / chroma_qp_offset=-2 / threads=3 / sliced_threads=0 / slices=4 / nr=0 / decimate=1 / interlaced=0 / constrained_intra=0 / bframes=3 / b_pyramid=1 / b_adapt=1 / b_bias=0 / direct=3 / weightb=1 / open_gop=0 / weightp=1 / keyint=24 / keyint_min=1 / scenecut=40 / intra_refresh=0 / rc_lookahead=24 / rc=2pass / mbtree=1 / bitrate=2438 / ratetol=1.0 / qcomp=0.60 / qpmin=0 / qpmax=51 / qpstep=4 / cplxblur=20.0 / qblur=0.5 / vbv_maxrate=17500 / vbv_bufsize=14500 / nal_hrd=vbr / ip_ratio=1.10 / aq=1:1.00
Language : English
Audio #2
ID : 2
Format : AC-3
Format/Info : Audio Coding 3
Codec ID : A_AC3
Duration : 1h 56mn
Bit rate mode : Constant
Bit rate : 384 Kbps
Channel(s) : 6 channels
Channel positions : Front: L C R, Surround: L R, LFE
Sampling rate : 48.0 KHz
Stream size : 321 MiB (14%)
Title : Дублированный
Language : Russian




______________________________













реклама партнёра


Вернуться к началу
 Профиль Отправить личное сообщение  
 
   Похожие торренты   Автор   Торрент   Размер 
В этой теме нет новых непрочитанных сообщений. Они возвращаются / Ellos Volvieron (Иван Ноэль) [Триллер, 2015] BDRip 1080p, avo+sub

Dracon

25 | 6

3.14 ГБ

В этой теме нет новых непрочитанных сообщений. Мыслить как преступник / Criminal Minds [10x01-12 из 24] (Джефф Дэвис) [2014, Триллер, драма, криминал, детектив, WEB-DL 720p | Fox]

Nickolas3435

3 | 8

16.54 ГБ

В этой теме нет новых непрочитанных сообщений. Мыслить как преступник / Criminal Minds [11х01-06 из 23] (Джефф Дэвис) [2015, Детектив, криминал, триллер, драма, WEB-DL 720p | IdeaFilm]

Nickolas3435

42 | 78

8.68 ГБ

В этой теме нет новых непрочитанных сообщений. Мыслить как преступник / Criminal Minds [11х01-11 из 23] (Джефф Дэвис) [2015, Детектив, криминал, триллер, драма, WEB-DL 720p | IdeaFilm]

Dracon

0 | 1

14.5 ГБ

В этой теме нет новых непрочитанных сообщений. Мыслить как преступник / Criminal Minds [11х01-07 из 23] (Джефф Дэвис) [2015, Детектив, криминал, триллер, драма, WEB-DLRip | IdeaFilm]

Dracon

149 | 204

2.79 ГБ

В этой теме нет новых непрочитанных сообщений. Мыслить как преступник / Criminal Minds [11х01-10 из 23] (Джефф Дэвис) [2015, Детектив, криминал, триллер, драма, WEB-DLRip | IdeaFilm]

Dracon

1 | 0

4.32 ГБ

В этой теме нет новых непрочитанных сообщений. Родина / Homeland [05х01-12 из 12] (Кларк Джонсон, Майкл Куэста, Дэниэл Эттиэс) [2015, Детектив, Драма, Криминал, Триллер, WEB-DL 720p | Amedia]

Dracon

20 | 14

20.45 ГБ


Начать новую тему Ответить на тему  [ 1 сообщение ] 




Для Мосгорсуда, Роскомнадзора и рекламодателей:: mosgorsud-torrent[собачка]yandex.ru