Торрент файл
скачать торрент магнет ссылка Добавлен: 25 май 2011, 08:54
Размер: 2.18 ГБ
Сидеров: 3
Личеров: 2
Автор

СообщениеДобавлено: 25 май 2011, 08:54 

Не в сети
Супермодератор
Аватара пользователя
Дата регистрации:
22 май 2010, 11:03
Возраст: 32
Спасибо: 7690 / 13
Сообщения: 49871
Ганнибал / Hannibal

Перевод: Профессиональный (полное дублирование), cубтитры: отсутствуют
Формат: HDRip, MKV,H.264, AC3
Страна: США, Великобритания
Режиссер: Ридли Скотт
Жанр: Триллер, драма, криминал, детектив
Продолжительность: 2:11:20
Год выпуска: 2001
В ролях: Энтони Хопкинс, Джулианна Мур, Гари Олдман, Рэй Лиотта, Фрэнки Фэйзон, Джанкарло Джаннини, Франческа Нери, Желько Иванек, Хазелль Гудман, Дэвид Эндрюс
Описание: По прошествии десяти лет тревожного молчания гениальный Ганнибал Лектер пишет письмо агенту ФБР Кларисе Старлинг, предлагая ей возобновить их прервавшуюся интеллектуальную дуэль.

С помощью миллионера Мейсона Верджера, ставшего очередной жертвой безумного доктора и мечтающего теперь скормить Лектера стае прожорливых кабанов, Клариса выходит на след неуловимого маньяка и вскоре узнает о том, что за ним уже охотится инспектор флорентийской полиции Риналдо Пацци, рассчитывающий получить за его поимку щедрое вознаграждение.

Но примитивные ловушки — слабая преграда для голодного каннибала, который все ближе подбирается к Кларисе, чтобы пригласить свою фаворитку на самую страшную трапезу в ее жизни…





Рейтинг MPAA: R

Видео: 1280x692 (1,850),24 fps,AVC MPEG-4 High@L4.1, ~1933kbps avg, 0.091 bit/pixel.
Аудио:48 kHz, AC 3,L C R, L R, LFE , 6 ch~ 448 kbps avg

Общее
Уникальный идентификатор : 248187904850758318957859072126000348568 (0xBAB74074914ED09CA9812FC45C44BD9
Полное имя : E:\Hannibal_[tfile.ru].mkv
Формат : Matroska
Размер файла : 2,18 Гбайт
Продолжительность : 2 ч. 11 м.
Общий поток : 2373 Кбит/сек
Название фильма : Rip by Romeo [NOLIMITS-TEAM.RU]
Дата кодирования : UTC 2010-12-08 17:02:17
Программа кодирования : mkvmerge v3.0.0 ('Hang up your Hang-Ups') built on Dec 12 2009 15:20:35
Библиотека кодирования : libebml v0.7.9 + libmatroska v0.8.1

Видео
Идентификатор : 1
Формат : AVC
Формат/Информация : Advanced Video Codec
Профиль формата : High@L4.1
Параметр CABAC формата : Да
Параметр ReFrames формата : 3 кадры
Параметры GOP формата : M=4, N=16
Идентификатор кодека : V_MPEG4/ISO/AVC
Продолжительность : 2 ч. 11 м.
Вид битрейта : Переменный
Битрейт : 1933 Кбит/сек
Максимальный битрейт : 17,5 Мбит/сек
Ширина : 1280 пикс.
Высота : 692 пикс.
Соотношение сторон : 1,850
Частота кадров : 24,000 кадр/сек
Цветовое пространство : YUV
Подвыборка цветности : 4:2:0
Битовая глубина : 8 бит
Тип развёртки : Прогрессивная
Бит/(Пиксели*Кадры) : 0.091
Размер потока : 1,72 Гбайт (79%)
Заголовок : Ганнибал.[nolimits-team.ru]
Библиотека кодирования : x264 core 108 r1788 c764e29
Настройки программы : cabac=1 / ref=1 / deblock=1:0:0 / analyse=0x3:0x3 / me=dia / subme=1 / psy=1 / psy_rd=0.00:0.00 / mixed_ref=0 / me_range=16 / chroma_me=1 / trellis=0 / 8x8dct=1 / cqm=0 / deadzone=21,11 / fast_pskip=1 / chroma_qp_offset=0 / threads=6 / sliced_threads=0 / slices=4 / nr=0 / decimate=1 / interlaced=0 / constrained_intra=0 / bframes=3 / b_pyramid=1 / b_adapt=1 / b_bias=0 / direct=1 / weightb=1 / open_gop=0 / weightp=0 / keyint=24 / keyint_min=1 / scenecut=40 / intra_refresh=0 / rc_lookahead=0 / rc=abr / mbtree=0 / bitrate=1933 / ratetol=1.0 / qcomp=0.60 / qpmin=0 / qpmax=51 / qpstep=4 / vbv_maxrate=17500 / vbv_bufsize=14500 / ip_ratio=1.10 / pb_ratio=1.10 / aq=1:1.00 / nal_hrd=vbr
Язык : English

Аудио
Идентификатор : 2
Формат : AC-3
Формат/Информация : Audio Coding 3
Расширение режима : CM (complete main)
Идентификатор кодека : A_AC3
Продолжительность : 2 ч. 11 м.
Вид битрейта : Постоянный
Битрейт : 448 Кбит/сек
Канал(ы) : 6 канала(ов)
Расположение каналов : Front: L C R, Side: L R, LFE
Частота : 48,0 КГц
Битовая глубина : 16 бит
Метод сжатия : С потерями
Размер потока : 421 Мбайт (19%)
Заголовок : Профессиональный (полное дублирование)
Язык : Russian








реклама партнёра


Вернуться к началу
 Профиль Отправить личное сообщение  
 
   Похожие торренты   Автор   Торрент   Размер 
В этой теме нет новых непрочитанных сообщений. Ганнибал / Hannibal [Детектив, триллер, 2001] BDRip-HEVC 1080p, Dub [лицензия]

salma3

36 | 8

5.64 ГБ

В этой теме нет новых непрочитанных сообщений. Ганнибал / Hannibal [03х01-13 из 13] (Гильермо Наварро, Майкл Раймер, Дэвид Слэйд) [Детектив, триллер, криминал, драма, 2015] WEB-DLRip [NewStudio]

Dracon

127 | 50

7.65 ГБ

В этой теме нет новых непрочитанных сообщений. Ганнибал / Hannibal [Season 3, Episodes 1-13 of 13] (Гильермо Наварро, Майкл Раймер, Дэвид Слэйд) [Детектив, триллер, криминал, драма, 2015] WEB-DL 720p [Jaskier]

Dracon

93 | 97

18.2 ГБ

В этой теме нет новых непрочитанных сообщений. Ганнибал / Hannibal [Season 3 episode 1-13] (Гильермо Наварро, Майкл Раймер, Дэвид Слэйд) [Детектив, триллер, криминал, драма, 2015] HDTVRip [AlexFilm]

Dracon

311 | 252

7.19 ГБ

В этой теме нет новых непрочитанных сообщений. Ганнибал / Hannibal [Season 3, Episodes 1-13 of 13] (Гильермо Наварро, Майкл Раймер, Дэвид Слэйд) [Детектив, триллер, криминал, драма, 2015] WEB-DL 720p [NewStudio]

Dracon

7 | 6

18.62 ГБ

В этой теме нет новых непрочитанных сообщений. Ганнибал / Hannibal [01-03х01-27 из 39] (Гильермо Наварро, Майкл Раймер, Дэвид Слэйд) [Детектив, триллер, криминал, драма, 2013-2015] WEB-DLRip [AlexFilm]

Dracon

37 | 18

13.67 ГБ

В этой теме нет новых непрочитанных сообщений. Ганнибал / Hannibal [Season 3 episode 1-13] (Гильермо Наварро, Майкл Раймер, Дэвид Слэйд) [Детектив, триллер, криминал, драма, 2015] HDTVRip 720p [AlexFilm]

Dracon

7 | 8

21.52 ГБ


Начать новую тему Ответить на тему  [ 1 сообщение ] 




Для Мосгорсуда, Роскомнадзора и рекламодателей:: mosgorsud-torrent[собачка]yandex.ru