Торрент файл
скачать торрент магнет ссылка Добавлен: 25 май 2011, 08:53
Размер: 1.45 ГБ
Сидеров: 0
Личеров: 2
Автор

СообщениеДобавлено: 25 май 2011, 08:53 

Не в сети
Супермодератор
Аватара пользователя
Дата регистрации:
22 май 2010, 11:03
Возраст: 31
Спасибо: 7524 / 13
Сообщения: 49940
4.3.2.1 / 4.3.2.1



Перевод: Профессиональный (полное дублирование), cубтитры: отсутствуют
Формат: HDRip-AVC, MKV, H.264, AC3
Страна: Великобритания
Режиссер: Ноэль Кларк
Жанр: триллер, комедия, криминал
Продолжительность: 01:56:42
Год выпуска: 2010

В ролях: Эмма Робертс, Ноэль Кларк, Тэмсин Эгертон, Офелия Ловибонд, Шаника Уоррен-Мерленд, Джейкоб Андерсон, Николас Бриггс, Натали Бриттон, Линзи Коккер

Описание: В то время как Джоанн приходится работать в супермаркете, остальные поглощены своими приключениями: Кассандра стремится в Нью-Йорк, чтобы встретиться с другом из Интернета; Кэррис борется за права женщин, а Шэннон направляется на встречу с отцом. Но сама судьба сталкивает их отдельные миры и друг друга. У 4-х девушек всего 3 дня, которые они никогда не забудут и 2 города, которые они посетят, то есть… если они выживут.



Видео: 1024x432 (2.370), 23.976 fps, AVC MPEG-4 High@L4.1, х264, 1 400 kbps, 0.132 bit/pixel
Аудио: 48 kHz, AC3 Dolby Digital, 3/2 (L,C,R,l,r) + LFE ch, ~384.00 kbps avg
General
Unique ID: 175489187312261391918595642046591703150 (0x8405FCF28DED63F784815B61045A986E)
Complete name: E:\РЕЛИЗЫ\Все релизы 10\4_3_2_1_[tfile.ru].mkv
Format: Matroska
File size: 1.45 GiB
Duration: 1h 56mn
Overall bit rate: 1 783 Kbps
Movie name: 4.3.2.1.chopper887
Encoded date: UTC 2011-03-04 13:11:26
Writing application: mkvmerge v4.4.0 ('Die Wiederkehr') built on Nov7 2010 22:17:07
Writing library: libebml v1.0.0 + libmatroska v1.0.0

Video
ID: 1
Format: AVC
Format/Info: Advanced Video Codec
Format profile: High@L4.1
Format settings, CABAC: Yes
Format settings, ReFrames: 10 frames
Muxing mode: Header stripping
Codec ID: V_MPEG4/ISO/AVC
Duration: 1h 56mn
Bit rate: 1 400 Kbps
Width: 1 024 pixels
Height: 432 pixels
Display aspect ratio: 2.35:1
Frame rate: 23.976 fps
Color space: YUV
Chroma subsampling: 4:2:0
Bit depth: 8 bits
Scan type: Progressive
Bits/(Pixel*Frame): 0.132
Stream size: 1.11 GiB (76%)
Title: 4.3.2.1.chopper887
Writing library: x264 core 112 r1867 22bfd31
Encoding settings: cabac=1 / ref=10 / deblock=1:-2:-1 / analyse=0x3:0x133 / me=umh / subme=9 / psy=1 / psy_rd=1.00:0.10 / mixed_ref=1 / me_range=32 / chroma_me=0 / trellis=2 / 8x8dct=1 / cqm=0 / deadzone=21,11 / fast_pskip=0 / chroma_qp_offset=-3 / threads=3 / sliced_threads=0 / nr=0 / decimate=1 / interlaced=0 / constrained_intra=0 / bframes=9 / b_pyramid=2 / b_adapt=2 / b_bias=0 / direct=3 / weightb=1 / open_gop=0 / weightp=2 / keyint=250 / keyint_min=23 / scenecut=40 / intra_refresh=0 / rc_lookahead=80 / rc=2pass / mbtree=1 / bitrate=1400 / ratetol=1.0 / qcomp=0.70 / qpmin=10 / qpmax=51 / qpstep=4 / cplxblur=20.0 / qblur=0.5 / ip_ratio=1.40 / aq=1:1.00
Language: English

Audio
ID: 2
Format: AC-3
Format/Info: Audio Coding 3
Mode extension: CM (complete main)
Muxing mode: Header stripping
Codec ID: A_AC3
Duration: 1h 56mn
Bit rate mode: Constant
Bit rate: 384 Kbps
Channel(s): 6 channels
Channel positions: Front: L C R, Side: L R, LFE
Sampling rate: 48.0 KHz
Bit depth: 16 bits
Compression mode: Lossy
Stream size: 321 MiB (22%)














реклама партнёра


Вернуться к началу
 Профиль Отправить личное сообщение  
 
   Похожие торренты   Автор   Торрент   Размер 
В этой теме нет новых непрочитанных сообщений. Родина / Homeland [05х01-12 из 12] (Кларк Джонсон, Майкл Куэста, Дэниэл Эттиэс) [2015, Детектив, Драма, Криминал, Триллер, WEB-DL 720p | Amedia]

Dracon

20 | 14

20.45 ГБ

В этой теме нет новых непрочитанных сообщений. Родина / Homeland [05х01-12 из 12] (Кларк Джонсон, Майкл Куэста, Дэниэл Эттиэс) [2015, Детектив, Драма, Криминал, Триллер, WEB-DLRip 720p | LostFilm]

Dracon

5 | 10

18.53 ГБ

В этой теме нет новых непрочитанных сообщений. Родина / Homeland [05х01-05 из 12] (Кларк Джонсон, Майкл Куэста, Дэниэл Эттиэс) [2015, Детектив, Драма, Криминал, Триллер, WEB-DLRip 720p | LostFilm]

Nickolas3435

106 | 166

8.44 ГБ

В этой теме нет новых непрочитанных сообщений. Они возвращаются / Ellos Volvieron (Иван Ноэль) [Триллер, 2015] WebRip, avo

Dracon

31 | 7

1.46 ГБ

В этой теме нет новых непрочитанных сообщений. Они возвращаются / Ellos Volvieron (Иван Ноэль) [Триллер, 2015] BDRip 1080p, avo+sub

Dracon

25 | 6

3.14 ГБ

В этой теме нет новых непрочитанных сообщений. Лимбо / Limbo (Иван Ноэль) [чёрная комедия, мистика, ужасы, 2014] DVDRip, avo

Dracon

4 | 3

996.24 МБ

В этой теме нет новых непрочитанных сообщений. Лимбо / Limbo (Иван Ноэль) [чёрная комедия, мистика, ужасы, 2014] WEB-DL 1080p, avo+sub

Dracon

4 | 3

3.7 ГБ


Начать новую тему Ответить на тему  [ 1 сообщение ] 




Для Мосгорсуда, Роскомнадзора и рекламодателей:: mosgorsud-torrent[собачка]yandex.ru