Торрент файл
скачать торрент магнет ссылка Добавлен: 25 май 2011, 08:47
Размер: 2.53 ГБ
Сидеров: 2
Личеров: 3
Автор

СообщениеДобавлено: 25 май 2011, 08:47 

Не в сети
Супермодератор
Аватара пользователя
Дата регистрации:
22 май 2010, 11:03
Возраст: 31
Спасибо: 7508 / 13
Сообщения: 49940
Служитель зла / Priest of Evil / Harjunpaa ja pahan pappi

Перевод: Любительский (одноголосый)
Cубтитры: Русские, английские, финские
Формат: HDRip-AVC, MKV, H.264, AC3
Страна: Финляндия
Режиссер: Олли Саарела
Жанр: триллер, драма, криминал, детектив
Продолжительность: 01:45:30
Год выпуска: 2010

В ролях: Петер Францен, Ирина Бьеркунд, Сампо Саркола, Йенни Банерье, Вилле Виртанен, Томми Корпела, Дженни Банерджи, Ээро Милонофф, Рауно Джавонен

Описание: Детектив Тимо Харьюнпаа, из города Хельсинки, расследует серию тяжких преступлений. Честный и добросовестный полицейский, один из лучших в городе, теряет свою дочь, которая была зверски убита. Несмотря на поддержку своей коллеги Онервы Никканен, детектив не может оправиться от потери. Параллельно поискам способа разделаться над убийцей своей дочери, он работает над странными смертями на станциях метро, которые приводят его к серийному маньяку. Но в то время как ему кажется, что он все ближе к поимке маньяка, на самом деле все наоборот. Харьюнпаа должен найти способ поймать маньяка и побороть темноту внутри себя..

[/field]



Видео: 1280x544, (2,35:1), 23,976 fps, AVC (x264), High@L4.1, ~2600 kbps avg, 156 bit/pixel
Аудио: 48 kHz, AC3 Dolby Digital, 3/2 (L,C,R,l,r) + LFE ch, ~384 kbps


Общее
Уникальный идентификатор: 203012605952348189690689422926764063236 (0x98BACE41A541CECD9BFC2C152D703A04)
Полное имя: D:\Фильмы\torrent - rozdacha\Служитель зла(VO Laids).2010.AC3.x264\Служитель зла(VO Laids).2010.AC3.x264.mkv
Формат: Matroska
Размер файла: 2,20 Гбайт
Продолжительность: 1 ч. 45 м.
Общий поток: 2985 Кбит/сек
Дата кодирования: UTC 2011-03-26 06:30:28
Программа кодирования: mkvmerge v3.2.0 ('Beginnings') built on Feb 17 2010 12:36:13
Библиотека кодирования: libebml v0.7.9 + libmatroska v0.8.1

Видео
Идентификатор: 1
Формат: AVC
Формат/Информация: Advanced Video Codec
Профиль формата: High@L4.1
Параметр CABAC формата: Да
Параметр ReFrames формата: 6 кадры
Идентификатор кодека: V_MPEG4/ISO/AVC
Продолжительность: 1 ч. 45 м.
Битрейт: 2600 Кбит/сек
Ширина: 1280 пикс.
Высота: 1280x544 пикс.
Соотношение сторон: 2,35:1
Частота кадров: 23,976 кадр/сек
Цветовое пространство: YUV
Подвыборка цветности: 4:2:0
Битовая глубина: 8 бит
Тип развёртки: Прогрессивная
Бит/(Пиксели*Кадры): 0.156
Размер потока: 1,87 Гбайт (85%)
Заголовок: EliteCoder @ HD-BB.org
Библиотека кодирования: x264 core 114 r1913 5fd3dce
Настройки программы: cabac=1 / ref=6 / deblock=1:-4:-4 / analyse=0x3:0x113 / me=umh / subme=9 / psy=1 / psy_rd=1.00:0.00 / mixed_ref=1 / me_range=16 / chroma_me=1 / trellis=2 / 8x8dct=1 / cqm=0 / deadzone=21,11 / fast_pskip=0 / chroma_qp_offset=-3 / threads=15 / sliced_threads=0 / nr=0 / decimate=1 / interlaced=0 / constrained_intra=0 / bframes=4 / b_pyramid=2 / b_adapt=1 / b_bias=0 / direct=1 / weightb=1 / open_gop=0 / weightp=2 / keyint=250 / keyint_min=23 / scenecut=40 / intra_refresh=0 / rc_lookahead=45 / rc=2pass / mbtree=1 / bitrate=2600 / ratetol=1.0 / qcomp=0.60 / qpmin=0 / qpmax=69 / qpstep=4 / cplxblur=20.0 / qblur=0.5 / ip_ratio=1.40 / aq=1:1.00
Язык: Finnish
~384 kbps avg
Аудио
Идентификатор: 2
Формат: AC-3
Формат/Информация: Audio Coding 3
Расширение режима: CM (complete main)
Идентификатор кодека: A_AC3
Продолжительность: 1 ч. 45 м.
Вид битрейта: Постоянный
Битрейт: 384 Кбит/сек
Канал(ы): 6 ch канала(ов)
Расположение каналов: Front: L C R, Side: L R, LFE
Частота: 48,0 КГц
Битовая глубина: 16 бит
Метод сжатия: С потерями
Размер потока: 290 Мбайт (13%)
Заголовок: VO Laids
Язык: Russian

Текст #1
Идентификатор: 3
Формат: UTF-8
Идентификатор кодека: S_TEXT/UTF8
Идентификатор кодека/Информация: UTF-8 Plain Text
Заголовок: steelhawk
Язык: Russian

Текст #2
Идентификатор: 4
Формат: UTF-8
Идентификатор кодека: S_TEXT/UTF8
Идентификатор кодека/Информация: UTF-8 Plain Text
Заголовок: EliteCoder @ HD-BB.org
Язык: English

Текст #3
Идентификатор: 5
Формат: UTF-8
Идентификатор кодека: S_TEXT/UTF8
Идентификатор кодека/Информация: UTF-8 Plain Text
Заголовок: EliteCoder @ HD-BB.org
Язык: Finnish














реклама партнёра


Вернуться к началу
 Профиль Отправить личное сообщение  
 
   Похожие торренты   Автор   Торрент   Размер 
В этой теме нет новых непрочитанных сообщений. Избави нас от лукавого / Deliver Us from Evil [Ужасы, триллер, криминал, 2014] HDRip, dub [Звук с TS]

Dracon

1977 | 27

1.37 ГБ

В этой теме нет новых непрочитанных сообщений. Избави нас от лукавого / Deliver Us from Evil [Ужасы, триллер, криминал, 2014] HDRip, Dub [iTunes]

Dracon

2109 | 78

1.37 ГБ

В этой теме нет новых непрочитанных сообщений. Ничего не вижу, ничего не слышу / See No Evil, Hear No Evil [боевик, триллер, комедия, криминал, 1989] BDRip 1080p, Mvo+Avo+Sub

salma3

26 | 7

7.76 ГБ

В этой теме нет новых непрочитанных сообщений. В ночной тиши / Still of the Night [триллер, драма, криминал, детектив, 1982] HDRip, Mvo

salma3

40 | 3

1.45 ГБ

В этой теме нет новых непрочитанных сообщений. В долине Эла / In the Valley of Elah [триллер, драма, криминал, детектив, 2007] HDRip, Dub

salma3

312 | 19

1.45 ГБ

В этой теме нет новых непрочитанных сообщений. Обратная тяга / Backdraft [Боевик, триллер, драма, криминал, детектив, 1991] HDRip, Avo

salma3

23 | 1

1.46 ГБ

В этой теме нет новых непрочитанных сообщений. Убийства по чёткам / The Rosary Murders [триллер, драма, криминал, детектив, 1987] HDRip, Dvo

salma3

46 | 5

1.59 ГБ


Начать новую тему Ответить на тему  [ 1 сообщение ] 




Для Мосгорсуда, Роскомнадзора и рекламодателей:: mosgorsud-torrent[собачка]yandex.ru