Торрент файл
скачать торрент магнет ссылка Добавлен: 25 май 2011, 08:47
Размер: 2.13 ГБ
Сидеров: 0
Личеров: 6
Автор

СообщениеДобавлено: 25 май 2011, 08:47 

Не в сети
Супермодератор
Аватара пользователя
Дата регистрации:
22 май 2010, 11:03
Возраст: 32
Спасибо: 7690 / 13
Сообщения: 49871
Призрачные подсказки / Код Души / Thawt Ra Hat Win Yaan / Soul's Code

Перевод: Любительский (одноголосый), cубтитры: Русские(отключаемые)
Формат: DVDRip-AVC, MKV, H.264, AC3
Страна: Тайланд
Режиссер: Адсаджан Саттаговит
Жанр: Триллер
Продолжительность: 01:43:29
Год выпуска: 2008

В ролях: Н.Л. Наттакорн Дивакула, Гарнонт, Паттиват Руэнгсри, Премсини Ратаносопа, Тонгкаоу Паттарачокчай, Суттикан Вангжареонтавикул, Напат Банчонгчитпайсал

Описание: DSI (Department of Special Investigations, Департамент Специальных Расследований) Гарнонт останавливает спецоперацию, увидев, что у преступников заложница. Однако больше никто из команды заложницу не видел. Гарнонта отстраняют от дела и поручают ему расследование убийства неопознанной девушки, чей труп был обнаружен на территории буддийского монастыря в ЧиангМаи. Коллега Гарнонта - Нича - рассказывает ему, что с древних времен у детективов были особые помощники - духи жертв преступлений. Сначала Гарнонт отмахивается от этой 'сверхъестественной чуши', но постепенно убеждается, что призрак убитой девушки действительно дает ему подсказки, позволяющие найти преступника.

Рейтинг Кинопоиск.RU: Не найден


Видео: 720x576@1024x576(16:9),MPEG-4 AVC/H.264( High@L4.1 ), 25 fps ~2048 kbps, 0.198 bit/pixel
Аудио#1: Русский:48000 Hz,A_AC3, 6ch, ~448 kbps avg[Любительский (одноголосый)]
Аудио#2: Тайский:48000 Hz,A_AC3, 6ch, ~448 kbps avg[Оригинал]

General
Unique ID: 274237702417744030581245095274786128497 (0xCE5042A2CCC46D019A422954E2750271)
Complete name: C:\Documents and Settings\Admin.MICROSOF-42B712\Мои документы\Downloads\Новинки\Prizrachnye.podskazki.2008.x264.DVDRip-AVC.mkv
Format: Matroska
File size: 2.13 GiB
Duration: 1h 43mn
Overall bit rate: 2 946 Kbps
Encoded date: UTC 2010-08-22 12:59:30
Writing application: mkvmerge v3.0.0 ('Hang up your Hang-Ups') built on Dec 29 2009 00:24:14
Writing library: libebml v0.7.7 + libmatroska v0.8.1

Video
ID: 1
Format: AVC
Format/Info: Advanced Video Codec
Format profile: High@L3.0
Format settings, CABAC: Yes
Format settings, ReFrames: 3 frames
Codec ID: V_MPEG4/ISO/AVC
Duration: 1h 43mn
Bit rate: 2 048 Kbps
Width: 720 pixels
Height: 576 pixels
Display aspect ratio: 16:9
Frame rate: 25.000 fps
Standard: PAL
Color space: YUV
Chroma subsampling: 4:2:0
Bit depth: 8 bits
Scan type: Progressive
Bits/(Pixel*Frame): 0.198
Stream size: 1.44 GiB (68%)
Title: video
Writing library: x264 core 79
Encoding settings: cabac=1 / ref=3 / deblock=1:0:0 / analyse=0x3:0x113 / me=umh / subme=7 / psy=1 / psy_rd=1.0:0.0 / mixed_ref=1 / me_range=16 / chroma_me=1 / trellis=1 / 8x8dct=1 / cqm=0 / deadzone=21,11 / chroma_qp_offset=-2 / threads=3 / nr=0 / decimate=1 / mbaff=0 / constrained_intra=0 / bframes=3 / b_pyramid=0 / b_adapt=2 / b_bias=0 / direct=1 / wpredb=1 / wpredp=2 / keyint=250 / keyint_min=25 / scenecut=40 / rc_lookahead=50 / rc=2pass / mbtree=1 / bitrate=2048 / ratetol=1.0 / qcomp=0.60 / qpmin=10 / qpmax=51 / qpstep=4 / cplxblur=20.0 / qblur=0.5 / ip_ratio=1.40 / aq=1:1.00
Language: Russian
Color primaries: BT.601-6 525, BT.1358 525, BT.1700 NTSC, SMPTE 170M
Transfer characteristics: BT.709-5, BT.1361
Matrix coefficients: BT.601-6 525, BT.1358 525, BT.1700 NTSC, SMPTE 170M

Audio #1
ID: 2
Format: AC-3
Format/Info: Audio Coding 3
Mode extension: CM (complete main)
Codec ID: A_AC3
Duration: 1h 43mn
Bit rate mode: Constant
Bit rate: 448 Kbps
Channel(s): 6 channels
Channel positions: Front: L C R, Side: L R, LFE
Sampling rate: 48.0 KHz
Bit depth: 16 bits
Compression mode: Lossy
Stream size: 332 MiB (15%)
Title: audio RUS
Language: Russian

Audio #2
ID: 3
Format: AC-3
Format/Info: Audio Coding 3
Mode extension: CM (complete main)
Codec ID: A_AC3
Duration: 1h 43mn
Bit rate mode: Constant
Bit rate: 448 Kbps
Channel(s): 6 channels
Channel positions: Front: L C R, Side: L R, LFE
Sampling rate: 48.0 KHz
Bit depth: 16 bits
Compression mode: Lossy
Stream size: 332 MiB (15%)
Title: audio THAI
Language: Thai

Text
ID: 4
Format: UTF-8
Codec ID: S_TEXT/UTF8
Codec ID/Info: UTF-8 Plain Text
Title: subtitles RUS
Language: Russian

Menu
00:00:00.000: en:Chapter 1
00:05:37.520: en:Chapter 2
00:11:56.080: en:Chapter 3
00:17:18.480: en:Chapter 4
00:23:44.840: en:Chapter 5
00:30:03.400: en:Chapter 6
00:35:37.760: en:Chapter 7
00:43:03.920: en:Chapter 8
00:48:19.040: en:Chapter 9
00:55:43.120: en:Chapter 10
01:03:54.520: en:Chapter 11
01:14:23.720: en:Chapter 12
01:19:44.560: en:Chapter 13














реклама партнёра


Вернуться к началу
 Профиль Отправить личное сообщение  
 
   Похожие торренты   Автор   Торрент   Размер 
В этой теме нет новых непрочитанных сообщений. Полночь душ / Soul's Midnight [ужасы, триллер, 2006] DVDRip, Dvo

salma3

60 | 23

1.36 ГБ

В этой теме нет новых непрочитанных сообщений. Бессмертные души / Soul Survivors [ Ужасы, Триллер, 2001] DVDRip-AVC, Mvo

salma3

1 | 2

1.46 ГБ

В этой теме нет новых непрочитанных сообщений. Бессмертные души / Soul Survivors [Ужасы, триллер, драма, 2001] DVDRip, Mvo

salma3

106 | 37

1.37 ГБ

В этой теме нет новых непрочитанных сообщений. По прозвищу Танцор / Прозвище Танцор / Операция «Танцор» / Her Secret Life /Code name Dancer [,Боевик, триллер, драма, приключения, 1987] DVDRip, AVO

salma3

2 | 1

1.45 ГБ

В этой теме нет новых непрочитанных сообщений. Код да Винчи / The Da Vinci Code [триллер, детектив, 2006] Blu-ray 1080p. Dub

salma3

36 | 49

41.39 ГБ

В этой теме нет новых непрочитанных сообщений. ЦРУ: Операция «Алекса» / CIA Code Name: Alexa [Боевик, триллер, 1992] HDRip, Mvo+Avo

salma3

52 | 1

1.47 ГБ

В этой теме нет новых непрочитанных сообщений. Блюзмены / Soul Men [Драма, комедия, музыка, 2008] BDRip 1080p, Dvo

salma3

21 | 26

7.73 ГБ


Начать новую тему Ответить на тему  [ 1 сообщение ] 




Для Мосгорсуда, Роскомнадзора и рекламодателей:: mosgorsud-torrent[собачка]yandex.ru